Loading...
Error

Борджиа / The Borgias / Сезон 1 / Серии 1-9 (9) (Нил Джордан) [2011 г., исторический, драма, HDTVRip] MVO

Статистика раздачи
Размер:  3,51 GB   |    Зарегистрирован:  3 года 7 месяцев   |    Скачан:  2 раза

Полного источника не было: 4 месяца 19 дней

Сидов:  0  |  0 KB/s  ]   Личеров:  0  |  0 KB/s  ]

* - сиды/пиры с внешних источников

   
 
Автор Сообщение

M_Iron Пол:Муж

30-Апр-2013 09:37

Борджиа / The Borgias


Год выпуска: 2011
Жанр: исторический, драма
Страна: Канада , Ирландия , Венгрия
Режиссер: Нил Джордан
В ролях: Дэвид Оакес, Люк Паскуалино, Ронан Вайберт, Франсуа Арно , Холли Грэйнджер , Джереми Айронс, Эйдан Александр, Рута Гедминтас
Сюжет фильма:
В конце XV века в руках Папы Римского сосредоточилась неограниченная власть: он мог короновать и свергать королей, изменять судьбу империй. Некогда доброе имя церкви стало теперь ассоциироваться только с коррупцией и безнравственностью. В 1492 году, после смерти папы Иннокентия VIII, престол Святого Петра занял Александр VI (в миру Родриго Борджиа), который вписал в историю имя клана Борджиа отнюдь не благими деяниями
1. Отравленная чаша
2. Убийца
3. Мавр
4. Свадьба Лукреции
5. Влюблённые Борджиа
6. Французский король
7. Смерть на белом коне
8. Военное искусство
9. Никто


Качество видео: HDTVRip

Продолжительность: 06:36:00
Формат: AVI
Видео: XviD, 656x368, 1040 kbps
Аудио: русский, многоголосый закадровый [профессиональный], MP3 2.0, 128 kbps

Код:

General
Complete name Bordjia_s01_01,02_[*другой трекер*]_by_Scarabey.avi
Format : AVI
Format/Info : Audio Video Interleave
File size : 833 MiB
Duration : 1h 38mn
Overall bit rate : 1 178 Kbps
Writing application : VirtualDubMod 1.5.10.2 (build 2540/release)
Writing library : VirtualDubMod build 2540/release
Video
Format : MPEG-4 Visual
Format profile : Streaming Video@L1
Format settings, BVOP : Yes
Format settings, QPel : No
Format settings, GMC : No warppoints
Format settings, Matrix : Custom
Codec ID : XVID
Codec ID/Hint : XviD
Duration : 1h 38mn
Bit rate : 1 041 Kbps
Width : 656 pixels
Height : 368 pixels
Display aspect ratio : 16/9
Frame rate : 23.976 fps
Resolution : 24 bits
Colorimetry : 4:2:0
Scan type : Progressive
Bits/(Pixel*Frame) : 0.180
Stream size : 736 MiB (88%)
Writing library : XviD 50
Audio
Format : MPEG Audio
Format version : Version 1
Format profile : Layer 3
Codec ID : 55
Codec ID/Hint : MP3
Duration : 1h 38mn
Bit rate mode : Constant
Bit rate : 128 Kbps
Minimum bit rate : 128 Kbps
Channel(s) : 2 channels
Sampling rate : 48.0 KHz
Resolution : 16 bits
Stream size : 90.5 MiB (11%)
Alignment : Aligned on interleaves
Interleave, duration : 42 ms (1.00 video frame)
Interleave, preload duration : 504 ms
Writing library : LAME3.97
Encoding settings : CBR
Семпл: http://www.divshare.com/download/24055532-f35

Релиз группы:

picpicpicpicpicpicpicpic
Для увеличения картинки щелкните мышкой по превью

Этот торрент недоступен для скачивания без регистрации, однако доступен по публичной magnet-ссылке (источники с публичных трекеров). Перед использованием ссылки прочтите, пожалуйста Пользовательское соглашение, а также как можно дольше оставайтесь на раздаче! Для того, чтобы скачать сам торрент-файл (который видит больше источников), а также для того, чтобы поблагодарить релизера, вам необходимо зарегистрироваться. Если регистрироваться лень - вы можете также попробовать скачать релиз по нашим партнерским ссылкам ниже.

[underverse.su].t26869.torrent
Трекер: Зарегистрирован   [ 30.04.2013 09:37 ]  

Статус: проверено (by Печаль'ka at 30.04.2013 10:07)
Поблагодарили: 1 человек
Тип торрента: публичный - доступные источники с открытых трекеров: 
Размер: 3,51 GB (занимает 0,8 DVDR, для записи нужно 1 болванка DVDR/RW)
 
 
Похожие темы
Форум Тема Автор Торрент Отв. Посл. сооб.
Зарубежное кино [DVDRip, Low-Res HDRip, и т.д.] Борджиа / Los Borgia (Антонио Эрнандес / Antonio Hernandez) [2006 г., биография, BDRip] MVO + Original (Spa) + Sub (Rus) 90ytr90
5 | 1

0 | 172

5

31.01.2015 21:53



Последний раз редактировалось: M_Iron (30.04.2013 14:13), всего редактировалось 3 раз(а)

Чертёнок Пол:Муж

30-Апр-2013 10:11

Исправь в шапке надо так Борджиа / The Borgias / Сезон 1 / Серии 1-9 (12) (Нил Джордан) [2011 г., исторический, драма, HDTVRip] MVO

M_Iron Пол:Муж

30-Апр-2013 14:09

Поправил. Только серий в первом сезоне 9, а не 12.

Чертёнок Пол:Муж

30-Апр-2013 14:12

Нет 12 серий.

M_Iron Пол:Муж

30-Апр-2013 14:21

Хоть Вы и упорствуете, но вот ссылка:
http://ru.wikipedia.org/wiki/Список_эпизодов_телесериала_«Борджиа»#.D0.A1.D0.B5.D0.B7.D0.BE.D0.BD_1_.282011.29

Кстати, список серий я добавил в описание.
И да! Спасибо за помощь в оформлении

Яндекс.Метрика powered by Sphinx


В Н И М А Н И Е
Сайт не распространяет и не хранит электронные версии произведений, а лишь бесплатно и без коммерческой выгоды (не требуя взамен платы,
SMS и т.д.) предоставляет доступ к создаваемому пользователями каталогу ссылок на торрент-файлы, которые содержат только списки хеш-сумм.
Убедительная просьба с жалобами обращаться напрямую к пользователю, разместившему торрент файл.

Вверх