Loading...
Error

«1943» / Серии: 1-16 [16] ( Валерий Шалыга) [2013 г., военный, драма, SatRip]

Статистика раздачи
Размер:  7,83 GB   |    Зарегистрирован:  3 года 6 месяцев   |    Скачан:  16 раз

Полного источника не было: 3 месяца 12 дней

Сидов:  0  |  0 KB/s  ]   Личеров:  0  |  0 KB/s  ]

* - сиды/пиры с внешних источников

   
 
Автор Сообщение

nemos Пол:Муж

29-Апр-2013 20:06

«1943»


Год выпуска: 2013
Жанр: военный, драма
Страна: Россия
Режиссер: Валерий Шалыга
В ролях: Александр Пашков, Владимир Гостюхин, Йоханес Габриель, Любовь Тихомирова, Дарья Баранова, Ольга Олексий, Владимир Башкиров, Егор Баринов, Анатолий Гущин, Нина Усатова
Сюжет фильма:
Сериал «1943», покажет вам не легкую судьбу людей, которые прошли Великую Отечественную войну. Судьба не раз ставила перед тяжелым выбором. Остаться верной своей любви, или же быть с тем к кому тянет, а потом остаться изгоем? Пойти ли на смерть с любимым? Или выбрать жизнь? Мстить врагам за смерть любимых, или же простить и жить дальше? Возможно, ли жить с не любимой и бросить любимую и ребенка, которого она носит под сердцем? Смогут ли наши герои вести борьбу за свое счастье? Война оставит незабываемый след в сердце каждого, кто смог ее пережить. Она беспощадна. Не оборачиваясь назад, нужно идти вперед, ведь этот день может стать последним в твоей жизни…


Качество видео: SatRip

Продолжительность: 00:42:46 серия
Формат: AVI
Видео: XviD, 704x384, 1 498 kbps
Аудио: русский, MP3 2.0, 128 kbps

Код:

F:\С underverse-3 Фильмы\1943.2013.SATRip\1943.(16.serija).2013.XviD.SATRip.avi
   General
      Complete name : F:\С underverse-3 Фильмы\1943.2013.SATRip\1943.(16.serija).2013.XviD.SATRip.avi
      Format : AVI
      Format/Info : Audio Video Interleave
      File size : 501 MiB
      Duration : 42mn 46s
      Overall bit rate : 1 636 Kbps
      Writing application : VirtualDubMod 1.5.10.2 (build 2540/release)
      Writing library : VirtualDubMod build 2540/release
   Video #0
      ID : 0
      Format : MPEG-4 Visual
      Format profile : Simple@L3
      Format settings, BVOP : No
      Format settings, QPel : No
      Format settings, GMC : No warppoints
      Format settings, Matrix : Default (H.263)
      Codec ID : XVID
      Codec ID/Hint : XviD
      Duration : 42mn 46s
      Bit rate : 1 498 Kbps
      Width : 704 pixels
      Height : 384 pixels
      Display aspect ratio : 1.85:1
      Frame rate : 25.000 fps
      Color space : YUV
      Chroma subsampling : 4:2:0
      Bit depth : 8 bits
      Scan type : Progressive
      Compression mode : Lossy
      Bits/(Pixel*Frame) : 0.222
      Stream size : 458 MiB (92%)
      Writing library : XviD 1.1.2 (UTC 2006-11-01)
   Audio #1
      ID : 1
      Format : MPEG Audio
      Format version : Version 1
      Format profile : Layer 3
      Mode : Joint stereo
      Mode extension : MS Stereo
      Codec ID : 55
      Codec ID/Hint : MP3
      Duration : 42mn 46s
      Bit rate mode : Constant
      Bit rate : 128 Kbps
      Channel(s) : 2 channels
      Sampling rate : 48.0 KHz
      Compression mode : Lossy
      Stream size : 39.2 MiB (8%)
      Alignment : Split accross interleaves
      Interleave, duration : 40 ms (1.00 video frame)
      Interleave, preload duration : 500 ms
      Writing library : LAME3.98
Семпл: http://multi-up.com/860518

picpicpicpicpicpicpicpicpicpicpicpicpicpicpicpicpicpicpic
Для увеличения картинки щелкните мышкой по превью
Сериал который был выложен и зарегистрирован более двух месяцев назад буду раздавать с 23.00ч до 06.00ч утра ( вина в этом не моя, а пользователей которые не поддерживают раздачу)

Этот торрент недоступен для скачивания без регистрации, однако доступен по публичной magnet-ссылке (источники с публичных трекеров). Перед использованием ссылки прочтите, пожалуйста Пользовательское соглашение, а также как можно дольше оставайтесь на раздаче! Для того, чтобы скачать сам торрент-файл (который видит больше источников), а также для того, чтобы поблагодарить релизера, вам необходимо зарегистрироваться. Если регистрироваться лень - вы можете также попробовать скачать релиз по нашим партнерским ссылкам ниже.

[underverse.su].t27316.torrent
Трекер: Зарегистрирован   [ 08.05.2013 19:51 ]  

Статус: проверено (by Чертёнок at 08.05.2013 19:56)
Поблагодарили: 3 человека
Тип торрента: публичный - доступные источники с открытых трекеров: 
Размер: 7,83 GB (занимает 1,79 DVDR, для записи нужно 2 болванки DVDR/RW)
 
 


Последний раз редактировалось: nemos (06.11.2014 11:25), всего редактировалось 16 раз(а)

nemos Пол:Муж

30-Апр-2013 19:39

торрент обновлен(16)

Яндекс.Метрика powered by Sphinx


В Н И М А Н И Е
Сайт не распространяет и не хранит электронные версии произведений, а лишь бесплатно и без коммерческой выгоды (не требуя взамен платы,
SMS и т.д.) предоставляет доступ к создаваемому пользователями каталогу ссылок на торрент-файлы, которые содержат только списки хеш-сумм.
Убедительная просьба с жалобами обращаться напрямую к пользователю, разместившему торрент файл.

Вверх