Loading...
Error

Розсміши коміка / Рассмеши комика (Выпуски 45-55) [2013 г., Юмор, IPTVRip]

Статистика раздачи
Размер:  7,08 GB   |    Зарегистрирован:  4 года 5 месяцев   |    Скачан:  0 раз

Полного источника не было: 4 года 5 месяцев

Сидов:  0  |  0 KB/s  ]   Личеров:  0  |  0 KB/s  ]

* - сиды/пиры с внешних источников

   
 
Автор Сообщение

SHuRuP Пол:Муж

29-Апр-2013 18:09

Розсміши коміка / Рассмеши комика


Год выпуска: 2013
Жанр: Юмор
Страна: Украина
Ведущий: Дмитрий Шепелев
Комики: Владимир Зеленский и Евгений Кошевой
Описание:
Рассмешить своего знакомого или родственника - это одно дело, а вот заставить
смеяться человека, который всю свою жизнь профессионально занимается юмором -
такая задача по зубам далеко не каждому... Зато того, кому удастся рассмешить
Евгения Кошевого и Вову Зеленского, ждет солидное денежное вознаграждение!
Качество видео: IPTVRip

Продолжительность: 00:43:28
Формат: avi
Видео: XviD, 720x544, 2065 kbps
Аудио: русский, оригинал, MP3 1, 96 kbps

Код:

General
Complete name                    : G:\Post-KVN\RK\S_5\rassmeshi.komika.(45).www.kvnforall.info.avi
Format                           : AVI
Format/Info                      : Audio Video Interleave
File size                        : 675 MiB
Duration                         : 43mn 28s
Overall bit rate                 : 2 171 Kbps
Writing library                  : VirtualDub build 32842/release

Video
ID                               : 0
Format                           : MPEG-4 Visual
Format profile                   : Streaming Video@L1
Format settings, BVOP            : Yes
Format settings, QPel            : No
Format settings, GMC             : No warppoints
Format settings, Matrix          : Default (MPEG)
Codec ID                         : XVID
Codec ID/Hint                    : XviD
Duration                         : 43mn 28s
Bit rate                         : 2 065 Kbps
Width                            : 720 pixels
Height                           : 544 pixels
Display aspect ratio             : 4/3
Frame rate                       : 25.000 fps
Resolution                       : 24 bits
Colorimetry                      : 4:2:0
Scan type                        : Progressive
Bits/(Pixel*Frame)               : 0.211
Stream size                      : 642 MiB (95%)
Writing library                  : XviD 64

Audio
ID                               : 1
Format                           : MPEG Audio
Format version                   : Version 1
Format profile                   : Layer 3
Codec ID                         : 55
Codec ID/Hint                    : MP3
Duration                         : 43mn 28s
Bit rate mode                    : Constant
Bit rate                         : 96.0 Kbps
Channel(s)                       : 1 channel
Sampling rate                    : 48.0 KHz
Resolution                       : 16 bits
Video delay                      : 80ms
Stream size                      : 29.8 MiB (4%)
Alignment                        : Split accross interleaves
Interleave, duration             : 40 ms (1.00 video frame)
Interleave, preload duration     : 500 ms
Раздача ведётся путём добавления новых серий; при каждом добавлении создётся новый торрент. Чтобы начать докачку новой серии, пользователям необходимо сделать следующее:
(1) остановить скачивание,
(2) удалить старый торрент у себя из клиента (старые серии удалять не надо),
(3) скачать новый торрент и запустить его у себя в клиенте вместо старого, при этом указать клиенту путь в старую папку куда и должно происходить скачивание новых серий.
Ваш клиент при этом должен произвести хеширование (проверку) старой папки (если не производит сам - помогите ему сделать это), и будет докачивать только те серии которых у вас ещё нет. Старые серии при этом не удаляются, а продолжают раздаваться!
Eсли вы уже удалили старые серии, то предотвратить повторную закачку старых серий можно, отжав галочку в соответсвующих местах при запуске нового торрента. По возможности, желательно не удалять старые серии как можно дольше чтобы релизёр не столько продолжал раздавать старые серии, а смог сконцентрироваться на новых.
Релиз группы:

picpicpicpic
Для увеличения картинки щелкните мышкой по превью

Этот торрент недоступен для скачивания без регистрации, однако доступен по публичной magnet-ссылке (источники с публичных трекеров). Перед использованием ссылки прочтите, пожалуйста Пользовательское соглашение, а также как можно дольше оставайтесь на раздаче! Для того, чтобы скачать сам торрент-файл (который видит больше источников), а также для того, чтобы поблагодарить релизера, вам необходимо зарегистрироваться. Если регистрироваться лень - вы можете также попробовать скачать релиз по нашим партнерским ссылкам ниже.

[underverse.su].t26849.torrent
Трекер: Зарегистрирован   [ 05.06.2013 01:28 ]  

Статус: проверено (by SHuRuP at 05.06.2013 01:29)
Поблагодарили: 1 человек
Тип торрента: публичный - доступные источники с открытых трекеров: 
Размер: 7,08 GB (занимает 1,62 DVDR, для записи нужно 2 болванки DVDR/RW)
 
 
Похожие темы
Форум Тема Автор Торрент Отв. Посл. сооб.
Другие развлекательные передачи Розсміши коміка / Рассмеши комика (Выпуски 14-24) (2011) PDTVRip [2011 г., Юмор, PDTVRip] SHuRuP
0 | 0

8 | 4146

3

14.11.2011 23:25

Другие развлекательные передачи Розсміши коміка / Рассмеши комика (Выпуски 1-13) (2011) PDTVRip [2011 г., Юмор, PDTVRip] SHuRuP
0 | 0

13 | 7569

7

06.09.2011 22:20

Другие развлекательные передачи Розсміши коміка / Рассмеши комика (Выпуски 25-32) (2012) PDTVRip [2012 г., Юмор, PDTVRip] SHuRuP
0 | 0

7 | 4530

5

18.05.2012 18:01

Другие развлекательные передачи Розсміши коміка / Рассмеши комика (Выпуски 33-44) (2012-2013) IPTVRip [2012-2013 г., Юмор, IPTVRip] SHuRuP
0 | 0

8 | 6542

1

29.04.2013 18:13



Последний раз редактировалось: SHuRuP (05.06.2013 01:28), всего редактировалось 2 раз(а)

SHuRuP Пол:Муж

06-Май-2013 16:52

Добавлен выпуск 51

SHuRuP Пол:Муж

26-Май-2013 16:09

Добавлены выпуски 52, 53 и 54

SHuRuP Пол:Муж

05-Июн-2013 01:29

Добавлен выпуск 55

Яндекс.Метрика powered by Sphinx


В Н И М А Н И Е
Сайт не распространяет и не хранит электронные версии произведений, а лишь бесплатно и без коммерческой выгоды (не требуя взамен платы,
SMS и т.д.) предоставляет доступ к создаваемому пользователями каталогу ссылок на торрент-файлы, которые содержат только списки хеш-сумм.
Убедительная просьба с жалобами обращаться напрямую к пользователю, разместившему торрент файл.

Вверх