Loading...
Error

После любви / A perdre la raison (Хоаким Лафосс / Joachim Lafosse) [2012 г., драма, DVDRip] MVO

Статистика раздачи
Размер:  1,46 GB   |    Зарегистрирован:  3 года 7 месяцев   |    Скачан:  3 раза

Полного источника не было: 3 года 3 месяца

Сидов:  0  |  0 KB/s  ]   Личеров:  0  |  0 KB/s  ]

* - сиды/пиры с внешних источников

   
 
Автор Сообщение

Печаль'ka Пол:Жен

29-Апр-2013 11:35

После любви / A perdre la raison


Страна: Бельгия, Люксембург, Франция, Швейцария
Жанр: драма
Год выпуска: 2012
Продолжительность: 01:46:30
Перевод: Профессиональный (многоголосый закадровый)
Cубтитры: нет

Режиссер: Хоаким Лафосс / Joachim Lafosse

В ролях: Эмили Декьенн, Тахар Рахим, Янник Ренье, Байа Белаль, Нильс Ареструп, Стефан Биссо, Муния Рауи, Редуэн Бехаш, Натали Бутефо, Клер Бодсон

Описание: Бельгийский врач привозит в свою страну мароканского мальчика и воспитывает его как собственного сына. Повзрослев, юноша влюбляется и вступает в брак. Молодая супруга оказывается заложницей тяжелой эмоциональной обстановки, которая неизбежно приведет к трагическому концу… По мере рождения детей влияние доктора на семью становится все более сильным, а его альтруизм переходит все границы.

Качество видео: DVDRip
Формат видео: AVI
Видео кодек: XviD
Аудио кодек: AC3
Видео: 720x304 (2.37:1), 25 fps, XviD build 50 ~1567 kbps avg, 0.29 bit/pixel
Аудио: 48 kHz, AC3 Dolby Digital, 3/2 (L,C,R,l,r) + LFE ch, ~384 kbps
Раздача от: YTN
pic pic pic pic
Для увеличения картинки щелкните мышкой по превью
D:Posle.ljubvi.2012.P.DVDRip_1.45 [YTN] by dexter lex.avi
General
Complete name : D:Posle.ljubvi.2012.P.DVDRip_1.45 [YTN] by dexter lex.avi
Format : AVI
Format/Info : Audio Video Interleave
File size : 1.46 GiB
Duration : 1h 46mn
Overall bit rate : 1 960 Kbps
Writing application : VirtualDubMod 1.5.10.3 | www.virtualdub-fr.org || (build 2550/release)
Writing library : VirtualDubMod build 2550/release
Video #0
ID : 0
Format : MPEG-4 Visual
Format profile : Advanced Simple@L5
Format settings, BVOP : 1
Format settings, QPel : No
Format settings, GMC : No warppoints
Format settings, Matrix : Custom
Codec ID : XVID
Codec ID/Hint : XviD
Duration : 1h 46mn
Bit rate : 1 567 Kbps
Width : 720 pixels
Height : 304 pixels
Display aspect ratio : 2.37:1
Frame rate : 25.000 fps
Color space : YUV
Chroma subsampling : 4:2:0
Bit depth : 8 bits
Scan type : Progressive
Compression mode : Lossy
Bits/(Pixel*Frame) : 0.286
Stream size : 1.17 GiB (80%)
Writing library : XviD 1.2.1 (UTC 2008-12-04)
Audio #1
ID : 1
Format : AC-3
Format/Info : Audio Coding 3
Mode extension : CM (complete main)
Format settings, Endianness : Big
Codec ID : 2000
Duration : 1h 46mn
Bit rate mode : Constant
Bit rate : 384 Kbps
Channel(s) : 6 channels
Channel positions : Front: L C R, Side: L R, LFE
Sampling rate : 48.0 KHz
Bit depth : 16 bits
Compression mode : Lossy
Stream size : 293 MiB (20%)
Alignment : Split accross interleaves
Interleave, duration : 40 ms (1.00 video frame)
Interleave, preload duration : 500 ms

Этот торрент недоступен для скачивания без регистрации, однако доступен по публичной magnet-ссылке (источники с публичных трекеров). Перед использованием ссылки прочтите, пожалуйста Пользовательское соглашение, а также как можно дольше оставайтесь на раздаче! Для того, чтобы скачать сам торрент-файл (который видит больше источников), а также для того, чтобы поблагодарить релизера, вам необходимо зарегистрироваться. Если регистрироваться лень - вы можете также попробовать скачать релиз по нашим партнерским ссылкам ниже.

[underverse.su].t26833.torrent
Трекер: Зарегистрирован   [ 29.04.2013 11:35 ]  

Статус: проверено (by Печаль'ka at 29.04.2013 11:35)
Поблагодарили: пока никто не поблагодарил...
Тип торрента: публичный - доступные источники с открытых трекеров: 
Размер: 1,46 GB (занимает 1/3 DVDR, для записи нужно 1 болванка DVDR/RW)
 
 
Похожие темы
Форум Тема Автор Торрент Отв. Посл. сооб.
Зарубежное кино [DVDRip, Low-Res HDRip, и т.д.] После любви / A perdre la raison (Хоаким Лафосс) [2012 г., драма, DVDRip] MVO + Fre 90ytr90
0 | 0

0 | 333

3

28.04.2013 10:15


Яндекс.Метрика powered by Sphinx


В Н И М А Н И Е
Сайт не распространяет и не хранит электронные версии произведений, а лишь бесплатно и без коммерческой выгоды (не требуя взамен платы,
SMS и т.д.) предоставляет доступ к создаваемому пользователями каталогу ссылок на торрент-файлы, которые содержат только списки хеш-сумм.
Убедительная просьба с жалобами обращаться напрямую к пользователю, разместившему торрент файл.

Вверх