Loading...
Error

Юрий Гагарин (Юрий Сальников) [1969, документальный, TVRip]

Статистика раздачи
Размер:  933 MB   |    Зарегистрирован:  3 года 7 месяцев   |    Скачан:  3 раза

Полного источника не было: 20 часов

Сидов:  0  |  0 KB/s  ]   Личеров:  0  |  0 KB/s  ]

* - сиды/пиры с внешних источников

   
 
Автор Сообщение

матроскин Пол:Муж

27-Апр-2013 13:20

Юрий Гагарин


Год выпуска: 1969
Жанр: документальный, исторический
Страна: СССР
Режиссер: Юрий Сальников
Сюжет фильма:
Документальный фильм, вышедший на экраны сразу после гибели Юрия Гагарина в 1969 году. Лента разбита на четыре части. Первая называется "Встреча" и рассказывает о встрече космонавта после полета в космос, его поездках по всему миру как первого космонавта. Вторая часть называется "Перед стартом" и рассказывает о родине Гагарина, его учебе в школе и техникуме, летном училище, о том, как он оказался в отряде космонавтов. Есть интервью его жены Вали и однополчанина Алексея Леонова. Третья часть — полет — о Королеве, кратко о других членах отряда космонавтов: Быковском, Николаеве, Титове, Поповиче, — о старте первого космического корабля с космонавтом на борту. Четвертая часть рассказывает о гибели Гагарина во время испытательного полета.
Качество видео: TVRip

Продолжительность: 00:48:32
Формат: avi
Видео: DivX 4, 656x496, 2418 kbps
Аудио: русский, оригинал, MP3 2.0, 256 kbps

Код:

General
Complete name                    : C:\Users\Security\Videos\Мамонов\Jurij.Gagarin.1969..avi
Format                           : AVI
Format/Info                      : Audio Video Interleave
File size                        : 933 MiB
Duration                         : 48mn 32s
Overall bit rate                 : 2 687 Kbps
Writing application              : Lavf52.93.0

Video
ID                               : 0
Format                           : MPEG-4 Visual
Format profile                   : Simple@L1
Format settings, BVOP            : No
Format settings, QPel            : No
Format settings, GMC             : No warppoints
Format settings, Matrix          : Default (H.263)
Codec ID                         : DIVX
Codec ID/Info                    : Project Mayo
Codec ID/Hint                    : DivX 4
Duration                         : 48mn 32s
Bit rate                         : 2 418 Kbps
Width                            : 656 pixels
Height                           : 496 pixels
Display aspect ratio             : 4/3
Frame rate                       : 25.000 fps
Resolution                       : 24 bits
Colorimetry                      : 4:2:0
Scan type                        : Progressive
Bits/(Pixel*Frame)               : 0.297
Stream size                      : 840 MiB (90%)
Title                            : Video
Writing library                  : Lavc52.108.0

Audio
ID                               : 1
Format                           : MPEG Audio
Format version                   : Version 1
Format profile                   : Layer 3
Codec ID                         : 55
Codec ID/Hint                    : MP3
Duration                         : 48mn 31s
Bit rate mode                    : Constant
Bit rate                         : 256 Kbps
Channel(s)                       : 2 channels
Sampling rate                    : 44.1 KHz
Resolution                       : 16 bits
Stream size                      : 88.9 MiB (10%)
Alignment                        : Aligned on interleaves
Interleave, duration             : 26 ms (0.65 video frame)
Interleave, preload duration     : 52 ms
Title                            : Audio

picpicpicpicpicpic
Для увеличения картинки щелкните мышкой по превью

Этот торрент недоступен для скачивания без регистрации, однако доступен по публичной magnet-ссылке (источники с публичных трекеров). Перед использованием ссылки прочтите, пожалуйста Пользовательское соглашение, а также как можно дольше оставайтесь на раздаче! Для того, чтобы скачать сам торрент-файл (который видит больше источников), а также для того, чтобы поблагодарить релизера, вам необходимо зарегистрироваться. Если регистрироваться лень - вы можете также попробовать скачать релиз по нашим партнерским ссылкам ниже.

[underverse.su].t26736.torrent
Трекер: Зарегистрирован   [ 27.04.2013 13:20 ]  

Статус: проверено (by Печаль'ka at 27.04.2013 14:51)
Поблагодарили: 1 человек
Тип торрента: публичный - доступные источники с открытых трекеров: 
Размер: 933 MB (занимает 0,21 DVDR, для записи нужно 1 болванка DVDR/RW)
 
 
Похожие темы
Форум Тема Автор Торрент Отв. Посл. сооб.
Исторические фильмы Юрий Гагарин - Символ эпохи [2012 г., документальный, исторический, TVRip] матроскин
1 | 0

1 | 1061

11

12.04.2013 12:48



Последний раз редактировалось: матроскин (30.04.2013 12:50), всего редактировалось 2 раз(а)

матроскин Пол:Муж

27-Апр-2013 13:22

Качайте и смотрите документальные фильмы!

.


Яндекс.Метрика powered by Sphinx


В Н И М А Н И Е
Сайт не распространяет и не хранит электронные версии произведений, а лишь бесплатно и без коммерческой выгоды (не требуя взамен платы,
SMS и т.д.) предоставляет доступ к создаваемому пользователями каталогу ссылок на торрент-файлы, которые содержат только списки хеш-сумм.
Убедительная просьба с жалобами обращаться напрямую к пользователю, разместившему торрент файл.

Вверх