Loading...
Error

Воскресный вечер [эфир от 03.03.2013, телепередача, TVRip]

Статистика раздачи
Размер:  363 MB   |    Зарегистрирован:  3 года 7 месяцев   |    Скачан:  0 раз

Полного источника не было: 2 года 7 месяцев

Сидов:  0  |  0 KB/s  ]   Личеров:  0  |  0 KB/s  ]

* - сиды/пиры с внешних источников

   
 
Автор Сообщение

матроскин Пол:Муж

27-Апр-2013 12:27

Воскресный вечер [эфир от 03.03.2013,]


Год выпуска: 2013
Жанр: документальный
Страна: Россия
Выпущено: Телеканал Россия 1
Ведущий: Владимир Соловьев
Сюжет фильма:
Президент пошел на обновление, первый год третьего срока: разбор чиновничьих полетов, реформы избирательной системы. Укротитель тигров Дмитрий Рогозин выбирает для российской армии российского производителя и пересаживается на армейский внедорожник. Унификация прошлого, как написать учебник истории без внутренних противоречий и двойных толкований. И так, годовщина третьего президентского срока Владимира Путина отметилась чередой громких отставок и публичных порок. Чиновники поплатились за варварский рост тарифов ЖКХ, бездонную финансовую яму олимпийского недостроя, воровство в госкорпорациях. Глава государства стряхнул назначенцев и поменял правила игры для народных избранников. В пятницу в Госдуму поступил президентский законопроект...
Качество видео: TVRip

Продолжительность: 00:41:37
Формат: avi
Видео: DivX 4, 640x480, 952 kbps
Аудио: русский, оригинал, MP3 2.0, 256 kbps

Код:

General
Complete name                    : C:\Users\Security\Videos\Мамонов\Воскресный вечер (03.03.2013).avi
Format                           : AVI
Format/Info                      : Audio Video Interleave
File size                        : 363 MiB
Duration                         : 41mn 37s
Overall bit rate                 : 1 219 Kbps
Writing application              : Lavf52.93.0

Video
ID                               : 0
Format                           : MPEG-4 Visual
Format profile                   : Simple@L1
Format settings, BVOP            : No
Format settings, QPel            : No
Format settings, GMC             : No warppoints
Format settings, Matrix          : Default (H.263)
Codec ID                         : DIVX
Codec ID/Info                    : Project Mayo
Codec ID/Hint                    : DivX 4
Duration                         : 41mn 37s
Bit rate                         : 952 Kbps
Width                            : 640 pixels
Height                           : 480 pixels
Display aspect ratio             : 4/3
Frame rate                       : 15.000 fps
Resolution                       : 24 bits
Colorimetry                      : 4:2:0
Scan type                        : Progressive
Bits/(Pixel*Frame)               : 0.207
Stream size                      : 284 MiB (78%)
Writing library                  : Lavc52.108.0

Audio
ID                               : 1
Format                           : MPEG Audio
Format version                   : Version 1
Format profile                   : Layer 3
Codec ID                         : 55
Codec ID/Hint                    : MP3
Duration                         : 41mn 37s
Bit rate mode                    : Constant
Bit rate                         : 256 Kbps
Channel(s)                       : 2 channels
Sampling rate                    : 44.1 KHz
Resolution                       : 16 bits
Stream size                      : 76.2 MiB (21%)
Alignment                        : Aligned on interleaves
Interleave, duration             : 26 ms (0.39 video frame)
Writing library                  : LAME3.98.4

picpicpicpicpicpic
Для увеличения картинки щелкните мышкой по превью

Этот торрент недоступен для скачивания без регистрации, однако доступен по публичной magnet-ссылке (источники с публичных трекеров). Перед использованием ссылки прочтите, пожалуйста Пользовательское соглашение, а также как можно дольше оставайтесь на раздаче! Для того, чтобы скачать сам торрент-файл (который видит больше источников), а также для того, чтобы поблагодарить релизера, вам необходимо зарегистрироваться. Если регистрироваться лень - вы можете также попробовать скачать релиз по нашим партнерским ссылкам ниже.

[underverse.su].t26732.torrent
Трекер: Зарегистрирован   [ 27.04.2013 12:27 ]  

Статус: проверено (by Чертёнок at 27.04.2013 12:34)
Поблагодарили: пока никто не поблагодарил...
Тип торрента: публичный - доступные источники с открытых трекеров: 
Размер: 363 MB (занимает 0,08 DVDR, для записи нужно 1 болванка DVDR/RW)
 
 
Похожие темы
Форум Тема Автор Торрент Отв. Посл. сооб.
Информационно-аналитические передачи Воскресный вечер (Эфир от 14.04.2013) [2013 г., документальный, TVRip] матроскин
0 | 0

1 | 991

1

24.04.2013 10:21

Информационно-аналитические передачи Воскресный вечер (Владимир Соловьев) [2013, телепередача, TVRip] матроскин
1 | 0

1 | 643

0

30.04.2013 06:28



Последний раз редактировалось: матроскин (30.04.2013 12:35), всего редактировалось 2 раз(а)

матроскин Пол:Муж

27-Апр-2013 12:29

Качайте и смотрите документальные телепередачи

Яндекс.Метрика powered by Sphinx


В Н И М А Н И Е
Сайт не распространяет и не хранит электронные версии произведений, а лишь бесплатно и без коммерческой выгоды (не требуя взамен платы,
SMS и т.д.) предоставляет доступ к создаваемому пользователями каталогу ссылок на торрент-файлы, которые содержат только списки хеш-сумм.
Убедительная просьба с жалобами обращаться напрямую к пользователю, разместившему торрент файл.

Вверх