Loading...
Error

Октябрьский набат (Алла Дерюгина) [2011, документальный, TVRip]

Статистика раздачи
Размер:  354 MB   |    Зарегистрирован:  3 года 7 месяцев   |    Скачан:  6 раз

Полного источника не было: 18 часов

Сидов:  0  |  0 KB/s  ]   Личеров:  0  |  0 KB/s  ]

* - сиды/пиры с внешних источников

   
 
Автор Сообщение

матроскин Пол:Муж

27-Апр-2013 11:47

Октябрьский набат


Год выпуска: 2011
Жанр: документальный, исторический
Страна: Россия
Режиссер: Алла Дерюгина
Сюжет фильма:
Молодые реформаторы решили уничтожить все, что было сделано Советской властью. Кремль пошел на провокацию для того, чтобы ввести танки в Москву и прямой наводкой расстрелять Дом Советов. Отмашку на расстрел Дома Советов, Кремль получил из Вашингтона.
Качество видео: TVRip

Продолжительность: 00:25:46
Формат: avi
Видео: DivX 4, 720x480, 1651 kbps
Аудио: русский, оригинал, MP3 2.0, 256 kbps

Код:

General
Complete name                    : C:\Users\Security\Videos\Мамонов\Октябрьский набат.avi
Format                           : AVI
Format/Info                      : Audio Video Interleave
File size                        : 354 MiB
Duration                         : 25mn 46s
Overall bit rate                 : 1 919 Kbps
Writing application              : Lavf52.93.0

Video
ID                               : 0
Format                           : MPEG-4 Visual
Format profile                   : Simple@L1
Format settings, BVOP            : No
Format settings, QPel            : No
Format settings, GMC             : No warppoints
Format settings, Matrix          : Default (H.263)
Codec ID                         : DIVX
Codec ID/Info                    : Project Mayo
Codec ID/Hint                    : DivX 4
Duration                         : 25mn 46s
Bit rate                         : 1 651 Kbps
Width                            : 720 pixels
Height                           : 480 pixels
Display aspect ratio             : 1.500
Frame rate                       : 25.000 fps
Standard                         : NTSC
Resolution                       : 24 bits
Colorimetry                      : 4:2:0
Scan type                        : Progressive
Bits/(Pixel*Frame)               : 0.191
Stream size                      : 304 MiB (86%)
Writing library                  : Lavc52.108.0

Audio
ID                               : 1
Format                           : MPEG Audio
Format version                   : Version 1
Format profile                   : Layer 3
Codec ID                         : 55
Codec ID/Hint                    : MP3
Duration                         : 25mn 46s
Bit rate mode                    : Constant
Bit rate                         : 256 Kbps
Channel(s)                       : 2 channels
Sampling rate                    : 44.1 KHz
Resolution                       : 16 bits
Stream size                      : 47.2 MiB (13%)
Alignment                        : Aligned on interleaves
Interleave, duration             : 26 ms (0.65 video frame)
Writing library                  : LAME3.98.4

picpicpicpicpicpic
Для увеличения картинки щелкните мышкой по превью

Этот торрент недоступен для скачивания без регистрации, однако доступен по публичной magnet-ссылке (источники с публичных трекеров). Перед использованием ссылки прочтите, пожалуйста Пользовательское соглашение, а также как можно дольше оставайтесь на раздаче! Для того, чтобы скачать сам торрент-файл (который видит больше источников), а также для того, чтобы поблагодарить релизера, вам необходимо зарегистрироваться. Если регистрироваться лень - вы можете также попробовать скачать релиз по нашим партнерским ссылкам ниже.

[underverse.su].t26724.torrent
Трекер: Зарегистрирован   [ 27.04.2013 11:47 ]  

Статус: проверено (by Чертёнок at 27.04.2013 12:02)
Поблагодарили: 1 человек
Тип торрента: публичный - доступные источники с открытых трекеров: 
Размер: 354 MB (занимает 0,08 DVDR, для записи нужно 1 болванка DVDR/RW)
 
 
Похожие темы
Форум Тема Автор Торрент Отв. Посл. сооб.
Зарубежное кино [DVDRip, Low-Res HDRip, и т.д.] Октябрьский шторм / October Gale (Руба Надда) [2014 г., триллер, драма, мелодрама, HDRip] VO (PashaUp) 90ytr90
81 | 0

0 | 405

3

08.02.2015 11:17

Зарубежное кино [DVDRip, Low-Res HDRip, и т.д.] Октябрьский шторм / October Gale (Руба Надда) [2014 г., триллер, драма, мелодрама, HDRip] VO (RAIM) 90ytr90
11 | 0

0 | 495

7

17.02.2015 05:35

Зарубежное кино [DVDRip, Low-Res HDRip, и т.д.] Октябрьский шторм / October Gale (Руба Надда) [2014 г., триллер, драма, мелодрама, HDRip] DVO makkol
7 | 0

0 | 412

12

04.09.2015 12:48

Зарубежное кино [HDDVDRip / BDRip / WEB-DL / HDTV 1080/720р] Октябрьский шторм / October Gale (Руба Надда) [2014 г., триллер, драма, мелодрама, BDRip 1080p] DVO + Original makkol
5 | 0

0 | 422

12

04.09.2015 13:02



Последний раз редактировалось: матроскин (30.04.2013 12:46), всего редактировалось 1 раз

матроскин Пол:Муж

27-Апр-2013 11:48

Качайте и смотрите документальные фильмы!

.

Яндекс.Метрика powered by Sphinx


В Н И М А Н И Е
Сайт не распространяет и не хранит электронные версии произведений, а лишь бесплатно и без коммерческой выгоды (не требуя взамен платы,
SMS и т.д.) предоставляет доступ к создаваемому пользователями каталогу ссылок на торрент-файлы, которые содержат только списки хеш-сумм.
Убедительная просьба с жалобами обращаться напрямую к пользователю, разместившему торрент файл.

Вверх