Loading...
Error

Суд времени. 1993 год (5 канал Петербуржского ТВ) [2010, телепередача, TVRip]

Статистика раздачи
Размер:  1,43 GB   |    Зарегистрирован:  3 года 7 месяцев   |    Скачан:  2 раза

Полного источника не было: 12 часов

Сидов:  0  |  0 KB/s  ]   Личеров:  0  |  0 KB/s  ]

* - сиды/пиры с внешних источников

   
 
Автор Сообщение

матроскин Пол:Муж

27-Апр-2013 11:22

Суд времени. 1993 год


Год выпуска: 2010
Жанр: документальный, исторический
Страна: Россия
Выпущено: 5 канал Петербуржского ТВ
Сюжет фильма:
То, что происходило в Москве без малого 17 лет назад, до сих пор волнует не только историков и политологов, но и рядовых россиян. Можно ли было преодолеть кризис, избежав расстрела Белого дома, штурма телецентра в Останкино и многочисленных человеческих жертв? Да и закончился ли этот кризис на самом деле?

Обвинитель, политолог Сергей Кургинян, доказывает, что 1993-й год похоронил молодую российскую демократию. Защитник же, писатель Леонид Млечин, пытается оправдать поступки президента Российской Федерации Ельцина.

Свидетелями на процессе выступают непосредственные участники тех трагических событий: Руслан Хасбулатов, Олег Румянцев, Владимир Овчинский, Сергей Филатов и другие.
Качество видео: TVRip

Продолжительность: 01:35:58
Формат: avi
Видео: DivX 4, 640x480, 735 kbps
Аудио: русский, оригинал, MP3 2.0, 256 kbps

Код:

General
Complete name                    : C:\Users\Security\Videos\Мамонов\Суд времени - 1993 год..avi
Format                           : AVI
Format/Info                      : Audio Video Interleave
Format profile                   : OpenDML
File size                        : 1.43 GiB
Duration                         : 4h 2mn
Overall bit rate                 : 842 Kbps
Writing application              : Lavf52.93.0

Video
ID                               : 0
Format                           : MPEG-4 Visual
Format profile                   : Simple@L1
Format settings, BVOP            : No
Format settings, QPel            : No
Format settings, GMC             : No warppoints
Format settings, Matrix          : Default (H.263)
Codec ID                         : DIVX
Codec ID/Info                    : Project Mayo
Codec ID/Hint                    : DivX 4
Duration                         : 4h 2mn
Bit rate                         : 735 Kbps
Width                            : 640 pixels
Height                           : 480 pixels
Display aspect ratio             : 4/3
Frame rate                       : 25.000 fps
Resolution                       : 24 bits
Colorimetry                      : 4:2:0
Scan type                        : Progressive
Bits/(Pixel*Frame)               : 0.096
Stream size                      : 1.25 GiB (87%)
Writing library                  : Lavc52.108.0

Audio
ID                               : 1
Format                           : MPEG Audio
Format version                   : Version 1
Format profile                   : Layer 3
Codec ID                         : 55
Codec ID/Hint                    : MP3
Duration                         : 1h 35mn
Bit rate mode                    : Constant
Bit rate                         : 256 Kbps
Channel(s)                       : 2 channels
Sampling rate                    : 44.1 KHz
Resolution                       : 16 bits
Stream size                      : 176 MiB (12%)
Alignment                        : Aligned on interleaves
Interleave, duration             : 26 ms (0.65 video frame)
Writing library                  : LAME3.98.4

picpicpicpicpicpic
Для увеличения картинки щелкните мышкой по превью

Этот торрент недоступен для скачивания без регистрации, однако доступен по публичной magnet-ссылке (источники с публичных трекеров). Перед использованием ссылки прочтите, пожалуйста Пользовательское соглашение, а также как можно дольше оставайтесь на раздаче! Для того, чтобы скачать сам торрент-файл (который видит больше источников), а также для того, чтобы поблагодарить релизера, вам необходимо зарегистрироваться. Если регистрироваться лень - вы можете также попробовать скачать релиз по нашим партнерским ссылкам ниже.

[underverse.su].t26720.torrent
Трекер: Зарегистрирован   [ 27.04.2013 11:22 ]  

Статус: проверено (by Чертёнок at 27.04.2013 11:29)
Поблагодарили: пока никто не поблагодарил...
Тип торрента: публичный - доступные источники с открытых трекеров: 
Размер: 1,43 GB (занимает 0,33 DVDR, для записи нужно 1 болванка DVDR/RW)
 
 
Похожие темы
Форум Тема Автор Торрент Отв. Посл. сооб.
Исторические фильмы Суд времени. Советский человек. [2010 г., документальный, исторический, TVRip] матроскин
1 | 0

1 | 1011

6

24.04.2013 18:22

Исторические фильмы Суд времени. Беловежское соглашение [2010 г., документальный, исторический, TVRip] матроскин
0 | 0

4 | 617

3

28.04.2013 16:17

* Исторические фильмы Суд времени. Беловежское соглашение [2010 г., документальный, исторический, TVRip] матроскин

0 | 386

27.04.2013 08:50

Исторические фильмы Суд времени. Большевики. [2010, телепередача, TVRip] матроскин
2 | 0

1 | 474

0

27.04.2013 11:02

Исторические фильмы Суд времени. ГКЧП (5 канал Петербуржского ТВ) [2010, телепередача, TVRip] матроскин
0 | 0

1 | 551

3

27.04.2013 11:13



Последний раз редактировалось: матроскин (30.04.2013 12:48), всего редактировалось 1 раз

матроскин Пол:Муж

27-Апр-2013 11:24

Качайте и смотрите документальные телепередачи

Яндекс.Метрика powered by Sphinx


В Н И М А Н И Е
Сайт не распространяет и не хранит электронные версии произведений, а лишь бесплатно и без коммерческой выгоды (не требуя взамен платы,
SMS и т.д.) предоставляет доступ к создаваемому пользователями каталогу ссылок на торрент-файлы, которые содержат только списки хеш-сумм.
Убедительная просьба с жалобами обращаться напрямую к пользователю, разместившему торрент файл.

Вверх