Loading...
Error

Суд времени. ГКЧП (5 канал Петербуржского ТВ) [2010, телепередача, TVRip]

Статистика раздачи
Размер:  2,07 GB   |    Зарегистрирован:  3 года 7 месяцев   |    Скачан:  3 раза

Полного источника не было: 4 часа

Сидов:  0  |  0 KB/s  ]   Личеров:  0  |  0 KB/s  ]

* - сиды/пиры с внешних источников

   
 
Автор Сообщение

матроскин Пол:Муж

27-Апр-2013 11:11

Суд времени. ГКЧП


Год выпуска: 2010
Жанр: документальный, исторический
Страна: Россия
Выпущено: 5 канал Петербуржского ТВ
Сюжет фильма:
ГКЧП – путч или попытка избежать распада страны? Участники «Суда времени» пытаются сделать то, от чего в своё время отказались власти – вынести приговор участникам группы, вошедшей в новейшую историю под аббревиатурой ГКЧП. Сегодня их действия обычно называют путчем и государственным переворотом, но справедливо ли это? Быть может, они лишь пытались сделать всё возможное, чтобы предотвратить распад страны? Как сказал Александр Руцкой- в 1991 году Горбачева никто не арестовывал. И никакого государственного переворота не было, ГКЧП пыталось спасти Советский Союз.
Качество видео: TVRip

Продолжительность: 02:23:50
Формат: avi
Видео: DivX 4, 640x480, 707 kbps
Аудио: русский, оригинал, MP3 2.0, 256 kbps

Код:

General
Complete name                    : C:\Users\Security\Videos\Мамонов\Суд времени - ГКЧП..avi
Format                           : AVI
Format/Info                      : Audio Video Interleave
Format profile                   : OpenDML
File size                        : 2.07 GiB
Duration                         : 6h 4mn
Overall bit rate                 : 813 Kbps
Writing application              : Lavf52.93.0

Video
ID                               : 0
Format                           : MPEG-4 Visual
Format profile                   : Simple@L1
Format settings, BVOP            : No
Format settings, QPel            : No
Format settings, GMC             : No warppoints
Format settings, Matrix          : Default (H.263)
Codec ID                         : DIVX
Codec ID/Info                    : Project Mayo
Codec ID/Hint                    : DivX 4
Duration                         : 6h 4mn
Bit rate                         : 707 Kbps
Width                            : 640 pixels
Height                           : 480 pixels
Display aspect ratio             : 4/3
Frame rate                       : 25.000 fps
Resolution                       : 24 bits
Colorimetry                      : 4:2:0
Scan type                        : Progressive
Bits/(Pixel*Frame)               : 0.092
Stream size                      : 1.80 GiB (87%)
Writing library                  : Lavc52.108.0

Audio
ID                               : 1
Format                           : MPEG Audio
Format version                   : Version 1
Format profile                   : Layer 3
Codec ID                         : 55
Codec ID/Hint                    : MP3
Duration                         : 2h 23mn
Bit rate mode                    : Constant
Bit rate                         : 256 Kbps
Channel(s)                       : 2 channels
Sampling rate                    : 44.1 KHz
Resolution                       : 16 bits
Stream size                      : 263 MiB (12%)
Alignment                        : Aligned on interleaves
Interleave, duration             : 26 ms (0.65 video frame)
Writing library                  : LAME3.98.4

picpicpicpicpicpic
Для увеличения картинки щелкните мышкой по превью

Этот торрент недоступен для скачивания без регистрации, однако доступен по публичной magnet-ссылке (источники с публичных трекеров). Перед использованием ссылки прочтите, пожалуйста Пользовательское соглашение, а также как можно дольше оставайтесь на раздаче! Для того, чтобы скачать сам торрент-файл (который видит больше источников), а также для того, чтобы поблагодарить релизера, вам необходимо зарегистрироваться. Если регистрироваться лень - вы можете также попробовать скачать релиз по нашим партнерским ссылкам ниже.

[underverse.su].t26719.torrent
Трекер: Зарегистрирован   [ 27.04.2013 11:11 ]  

Статус: проверено (by Чертёнок at 27.04.2013 11:28)
Поблагодарили: пока никто не поблагодарил...
Тип торрента: публичный - доступные источники с открытых трекеров: 
Размер: 2,07 GB (занимает 0,47 DVDR, для записи нужно 1 болванка DVDR/RW)
 
 
Похожие темы
Форум Тема Автор Торрент Отв. Посл. сооб.
Исторические фильмы Суд времени. Советский человек. [2010 г., документальный, исторический, TVRip] матроскин
0 | 0

1 | 1011

6

24.04.2013 18:22

Исторические фильмы Суд времени. Беловежское соглашение [2010 г., документальный, исторический, TVRip] матроскин
0 | 0

4 | 617

3

28.04.2013 16:17

* Исторические фильмы Суд времени. Беловежское соглашение [2010 г., документальный, исторический, TVRip] матроскин

0 | 385

27.04.2013 08:50

Исторические фильмы Суд времени. Большевики. [2010, телепередача, TVRip] матроскин
2 | 0

1 | 473

0

27.04.2013 11:02

Исторические фильмы Суд времени. 1993 год (5 канал Петербуржского ТВ) [2010, телепередача, TVRip] матроскин
1 | 0

1 | 557

2

27.04.2013 11:24



Последний раз редактировалось: матроскин (30.04.2013 12:49), всего редактировалось 1 раз

матроскин Пол:Муж

27-Апр-2013 11:13

Качайте и смотрите документальные телепередачи

Яндекс.Метрика powered by Sphinx


В Н И М А Н И Е
Сайт не распространяет и не хранит электронные версии произведений, а лишь бесплатно и без коммерческой выгоды (не требуя взамен платы,
SMS и т.д.) предоставляет доступ к создаваемому пользователями каталогу ссылок на торрент-файлы, которые содержат только списки хеш-сумм.
Убедительная просьба с жалобами обращаться напрямую к пользователю, разместившему торрент файл.

Вверх