Loading...
Error

Суд времени. Беловежское соглашение [2010 г., документальный, исторический, TVRip]

 
Автор Сообщение

матроскин Пол:Муж

27-Апр-2013 08:50

Суд времени. Беловежское соглашение


Год выпуска: 2010
Жанр: документальный, исторический
Страна: Россия
Выпущено: 5 канал Петербуржского ТВ
Сюжет фильма:
Наша страна, это страна с непредсказуемым прошлым. Только за последнее столетие мы уже не один раз начисто переписывали своё прошлое, меняя плюсы на минусы, черное на белое, героев на злодеев. Для нас прошлое – это поле битвы, на котором мы яростно разбираемся не столько с нашим прошлым, сколько с настоящим и будущим нашей страны. В студии новой программы Пятого канала "Суд времени" кипят нешуточные страсти вокруг прошедших событий.
7-8 декабря 1991 года в нарушение Конституции СССР было подписано Беловежское соглашение, результатом которого стал развал СССР, антиконституционная смена государственного строя в союзных республиках, ограбление и мор народов СССР (только в Украине за это время вымерло порядка 7 000 000 человек!)
Качество видео: TVRip

Продолжительность: 06:04:32
Формат: avi
Видео: DivX 4, 640x480, 752 kbps
Аудио: русский, оригинал, MP3 2.0, 256 kbps

Код:

General
Complete name                    : C:\Users\Security\Videos\Мамонов\Беловежское соглашение..avi
Format                           : AVI
Format/Info                      : Audio Video Interleave
Format profile                   : OpenDML
File size                        : 2.18 GiB
Duration                         : 6h 4mn
Overall bit rate                 : 858 Kbps
Writing application              : Lavf52.93.0

Video
ID                               : 0
Format                           : MPEG-4 Visual
Format profile                   : Simple@L1
Format settings, BVOP            : No
Format settings, QPel            : No
Format settings, GMC             : No warppoints
Format settings, Matrix          : Default (H.263)
Codec ID                         : DIVX
Codec ID/Info                    : Project Mayo
Codec ID/Hint                    : DivX 4
Duration                         : 6h 4mn
Bit rate                         : 752 Kbps
Width                            : 640 pixels
Height                           : 480 pixels
Display aspect ratio             : 4/3
Frame rate                       : 25.000 fps
Resolution                       : 24 bits
Colorimetry                      : 4:2:0
Scan type                        : Progressive
Bits/(Pixel*Frame)               : 0.098
Stream size                      : 1.92 GiB (88%)
Writing library                  : Lavc52.108.0

Audio
ID                               : 1
Format                           : MPEG Audio
Format version                   : Version 1
Format profile                   : Layer 3
Codec ID                         : 55
Codec ID/Hint                    : MP3
Duration                         : 2h 24mn
Bit rate mode                    : Constant
Bit rate                         : 256 Kbps
Channel(s)                       : 2 channels
Sampling rate                    : 44.1 KHz
Resolution                       : 16 bits
Stream size                      : 264 MiB (12%)
Alignment                        : Aligned on interleaves
Interleave, duration             : 26 ms (0.65 video frame)
Writing library                  : LAME3.98.4

picpicpicpicpicpic
Для увеличения картинки щелкните мышкой по превью
Похожие темы
Форум Тема Автор Торрент Отв. Посл. сооб.
Исторические фильмы Суд времени. Советский человек. [2010 г., документальный, исторический, TVRip] матроскин
1 | 0

1 | 1011

6

24.04.2013 18:22

Исторические фильмы Суд времени. Беловежское соглашение [2010 г., документальный, исторический, TVRip] матроскин
1 | 0

4 | 617

3

28.04.2013 16:17

Исторические фильмы Суд времени. Большевики. [2010, телепередача, TVRip] матроскин
2 | 0

1 | 474

0

27.04.2013 11:02

Исторические фильмы Суд времени. ГКЧП (5 канал Петербуржского ТВ) [2010, телепередача, TVRip] матроскин
1 | 0

1 | 550

3

27.04.2013 11:13

Исторические фильмы Суд времени. 1993 год (5 канал Петербуржского ТВ) [2010, телепередача, TVRip] матроскин
1 | 0

1 | 557

2

27.04.2013 11:24


Яндекс.Метрика powered by Sphinx


В Н И М А Н И Е
Сайт не распространяет и не хранит электронные версии произведений, а лишь бесплатно и без коммерческой выгоды (не требуя взамен платы,
SMS и т.д.) предоставляет доступ к создаваемому пользователями каталогу ссылок на торрент-файлы, которые содержат только списки хеш-сумм.
Убедительная просьба с жалобами обращаться напрямую к пользователю, разместившему торрент файл.

Вверх