Loading...
Error

Суд времени. Беловежское соглашение [2010 г., документальный, исторический, TVRip]

Статистика раздачи
Размер:  2,18 GB   |    Зарегистрирован:  3 года 7 месяцев   |    Скачан:  3 раза

Полного источника не было: 12 часов

Сидов:  0  |  0 KB/s  ]   Личеров:  0  |  0 KB/s  ]

* - сиды/пиры с внешних источников

   
 
Автор Сообщение

матроскин Пол:Муж

27-Апр-2013 08:23

Суд времени. Беловежское соглашение


Год выпуска: 2010
Жанр: документальный, исторический
Страна: Россия
Выпущено: 5 канал Петербуржского ТВ
Сюжет фильма:
Наша страна, это страна с непредсказуемым прошлым. Только за последнее столетие мы уже не один раз начисто переписывали своё прошлое, меняя плюсы на минусы, черное на белое, героев на злодеев. Для нас прошлое – это поле битвы, на котором мы яростно разбираемся не столько с нашим прошлым, сколько с настоящим и будущим нашей страны. В студии новой программы Пятого канала "Суд времени" кипят нешуточные страсти вокруг прошедших событий.
7-8 декабря 1991 года в нарушение Конституции СССР было подписано Беловежское соглашение, результатом которого стал развал СССР, антиконституционная смена государственного строя в союзных республиках, ограбление и мор народов СССР (только в Украине за это время вымерло порядка 7 000 000 человек!)
Качество видео: TVRip

Продолжительность: 06:04:32
Формат: avi
Видео: DivX 4, 640x480, 752 kbps
Аудио: русский, оригинал, MP3 2.0, 256 kbps

Код:

General
Complete name                    : C:\Users\Security\Videos\Мамонов\Беловежское соглашение..avi
Format                           : AVI
Format/Info                      : Audio Video Interleave
Format profile                   : OpenDML
File size                        : 2.18 GiB
Duration                         : 6h 4mn
Overall bit rate                 : 858 Kbps
Writing application              : Lavf52.93.0

Video
ID                               : 0
Format                           : MPEG-4 Visual
Format profile                   : Simple@L1
Format settings, BVOP            : No
Format settings, QPel            : No
Format settings, GMC             : No warppoints
Format settings, Matrix          : Default (H.263)
Codec ID                         : DIVX
Codec ID/Info                    : Project Mayo
Codec ID/Hint                    : DivX 4
Duration                         : 6h 4mn
Bit rate                         : 752 Kbps
Width                            : 640 pixels
Height                           : 480 pixels
Display aspect ratio             : 4/3
Frame rate                       : 25.000 fps
Resolution                       : 24 bits
Colorimetry                      : 4:2:0
Scan type                        : Progressive
Bits/(Pixel*Frame)               : 0.098
Stream size                      : 1.92 GiB (88%)
Writing library                  : Lavc52.108.0

Audio
ID                               : 1
Format                           : MPEG Audio
Format version                   : Version 1
Format profile                   : Layer 3
Codec ID                         : 55
Codec ID/Hint                    : MP3
Duration                         : 2h 24mn
Bit rate mode                    : Constant
Bit rate                         : 256 Kbps
Channel(s)                       : 2 channels
Sampling rate                    : 44.1 KHz
Resolution                       : 16 bits
Stream size                      : 264 MiB (12%)
Alignment                        : Aligned on interleaves
Interleave, duration             : 26 ms (0.65 video frame)
Writing library                  : LAME3.98.4

picpicpicpicpicpic

Для увеличения картинки щелкните мышкой по превью

Этот торрент недоступен для скачивания без регистрации, однако доступен по публичной magnet-ссылке (источники с публичных трекеров). Перед использованием ссылки прочтите, пожалуйста Пользовательское соглашение, а также как можно дольше оставайтесь на раздаче! Для того, чтобы скачать сам торрент-файл (который видит больше источников), а также для того, чтобы поблагодарить релизера, вам необходимо зарегистрироваться. Если регистрироваться лень - вы можете также попробовать скачать релиз по нашим партнерским ссылкам ниже.

[underverse.su].t26771.torrent
Трекер: Зарегистрирован   [ 28.04.2013 03:26 ]  

Статус: проверено (by Bratok at 28.04.2013 03:59)
Поблагодарили: пока никто не поблагодарил...
Тип торрента: публичный - доступные источники с открытых трекеров: 
Размер: 2,18 GB (занимает 1/2 DVDR, для записи нужно 1 болванка DVDR/RW)
 
 
Похожие темы
Форум Тема Автор Торрент Отв. Посл. сооб.
Исторические фильмы Суд времени. Советский человек. [2010 г., документальный, исторический, TVRip] матроскин
1 | 0

1 | 1011

6

24.04.2013 18:22

* Исторические фильмы Суд времени. Беловежское соглашение [2010 г., документальный, исторический, TVRip] матроскин

0 | 386

27.04.2013 08:50

Исторические фильмы Суд времени. Большевики. [2010, телепередача, TVRip] матроскин
2 | 0

1 | 474

0

27.04.2013 11:02

Исторические фильмы Суд времени. ГКЧП (5 канал Петербуржского ТВ) [2010, телепередача, TVRip] матроскин
0 | 0

1 | 551

3

27.04.2013 11:13

Исторические фильмы Суд времени. 1993 год (5 канал Петербуржского ТВ) [2010, телепередача, TVRip] матроскин
1 | 0

1 | 557

2

27.04.2013 11:24



Последний раз редактировалось: матроскин (28.04.2013 03:26), всего редактировалось 2 раз(а)

Чертёнок Пол:Муж

27-Апр-2013 08:56

Где скриншоты? :twisted:

матроскин Пол:Муж

27-Апр-2013 09:37

Качайте и смотрите документальные телепередачи

Bratok Пол:Муж

28-Апр-2013 04:00

Горбачев и Ельцин предатели Нашей РОДИНЫ!

матроскин Пол:Муж

28-Апр-2013 16:17

Bratok писал(а):

Горбачев и Ельцин предатели Нашей РОДИНЫ!
Полностью с тобой согласен!

Яндекс.Метрика powered by Sphinx


В Н И М А Н И Е
Сайт не распространяет и не хранит электронные версии произведений, а лишь бесплатно и без коммерческой выгоды (не требуя взамен платы,
SMS и т.д.) предоставляет доступ к создаваемому пользователями каталогу ссылок на торрент-файлы, которые содержат только списки хеш-сумм.
Убедительная просьба с жалобами обращаться напрямую к пользователю, разместившему торрент файл.

Вверх