Loading...
Error

Ложь о сталинских репрессиях. Правда о Сталине [2012 г., документальный, TVRip]

Статистика раздачи
Размер:  511 MB   |    Зарегистрирован:  3 года 7 месяцев   |    Скачан:  47 раз
Сидов:  1  |  0 KB/s  ]   Личеров:  0  |  0 KB/s  ]

* - сиды/пиры с внешних источников

   
 
Автор Сообщение

матроскин Пол:Муж

27-Апр-2013 07:37

Ложь о сталинских репрессиях. Правда о Сталине


Год выпуска: 2012
Жанр: документальный
Страна: Россия
Режиссер: Эдуард Рустамов
Сюжет фильма:
"И мое имя тоже будет оболгано, оклеветано. Мне припишут множество злодеяний" И.В.Сталин ( из разговора с Чрезвычайным и Полномочным послом в СССР в Швеции Коллонтай А.М. в ноябре 1939 года)
Яков Джугашвили (правнук) И.В.Сталина рассказывает.....
Качество видео: TVRip

Продолжительность: 00:41:39
Формат: avi
Видео: DivX 4, 720x576, 1446 kbps
Аудио: русский, оригинал, MP3 2.0, 256 kbps

Код:

General
Complete name                    : C:\Users\Security\Videos\Мамонов\Ложь о сталинских репрессиях.avi
Format                           : AVI
Format/Info                      : Audio Video Interleave
File size                        : 511 MiB
Duration                         : 41mn 39s
Overall bit rate                 : 1 715 Kbps
Writing application              : Lavf52.93.0

Video
ID                               : 0
Format                           : MPEG-4 Visual
Format profile                   : Simple@L1
Format settings, BVOP            : No
Format settings, QPel            : No
Format settings, GMC             : No warppoints
Format settings, Matrix          : Default (H.263)
Codec ID                         : DIVX
Codec ID/Info                    : Project Mayo
Codec ID/Hint                    : DivX 4
Duration                         : 41mn 39s
Bit rate                         : 1 447 Kbps
Width                            : 720 pixels
Height                           : 576 pixels
Display aspect ratio             : 5/4
Frame rate                       : 25.000 fps
Standard                         : PAL
Resolution                       : 24 bits
Colorimetry                      : 4:2:0
Scan type                        : Progressive
Bits/(Pixel*Frame)               : 0.140
Stream size                      : 431 MiB (84%)
Writing library                  : Lavc52.108.0

Audio
ID                               : 1
Format                           : MPEG Audio
Format version                   : Version 1
Format profile                   : Layer 3
Codec ID                         : 55
Codec ID/Hint                    : MP3
Duration                         : 41mn 39s
Bit rate mode                    : Constant
Bit rate                         : 256 Kbps
Channel(s)                       : 2 channels
Sampling rate                    : 44.1 KHz
Resolution                       : 16 bits
Stream size                      : 76.3 MiB (15%)
Alignment                        : Aligned on interleaves
Interleave, duration             : 26 ms (0.65 video frame)
Writing library                  : LAME3.98.4

picpicpicpicpic
Для увеличения картинки щелкните мышкой по превью

Этот торрент недоступен для скачивания без регистрации, однако доступен по публичной magnet-ссылке (источники с публичных трекеров). Перед использованием ссылки прочтите, пожалуйста Пользовательское соглашение, а также как можно дольше оставайтесь на раздаче! Для того, чтобы скачать сам торрент-файл (который видит больше источников), а также для того, чтобы поблагодарить релизера, вам необходимо зарегистрироваться. Если регистрироваться лень - вы можете также попробовать скачать релиз по нашим партнерским ссылкам ниже.

[underverse.su].t26697.torrent
Трекер: Зарегистрирован   [ 27.04.2013 07:37 ]  

Статус: проверено (by Печаль'ka at 27.04.2013 08:21)
Поблагодарили: 5 человек
Тип торрента: публичный - доступные источники с открытых трекеров: 
Размер: 511 MB (занимает 0,11 DVDR, для записи нужно 1 болванка DVDR/RW)
 
 

матроскин Пол:Муж

27-Апр-2013 08:12

Качайте и смотрите интересное документальное кино


Советую прочитать книгу

Людо Мартенс
Другой взгляд на Сталина (Запрещенный Сталин)
(1994)

Эта тема под негласным запретом на "демократическом" Западе. Эту книгу невозможно купить в "свободной" Европе. Открыв эту рукопись, западные издатели сразу забывали о свободе слова. Потому что в своем сенсационном исследовании бельгийский историк и политический деятель посягнул на основы "либеральной" идеологии, опровергнув главный миф антисоветской пропаганды - черную легенду о "злодее Сталине".

Пресловутый "Голодомор" и "ужасы ГУЛАГа", "невинные жертвы репрессий" и "зверства кровавой гэбни", "тайный сговор Сталина с Гитлером" и "некомпетентность" Вождя в годы Великой Отечественной войны - Людо Мартенс не оставляет от всех этих обвинений камня на камне, неопровержимо доказывая их надуманность и лживость, выводя на чистую воду клеветников сталинской России. А многие поразительные сюжеты, доводы и факты, приведенные в этой книге, станут откровением даже для убежденных сталинистов.

Яндекс.Метрика powered by Sphinx


В Н И М А Н И Е
Сайт не распространяет и не хранит электронные версии произведений, а лишь бесплатно и без коммерческой выгоды (не требуя взамен платы,
SMS и т.д.) предоставляет доступ к создаваемому пользователями каталогу ссылок на торрент-файлы, которые содержат только списки хеш-сумм.
Убедительная просьба с жалобами обращаться напрямую к пользователю, разместившему торрент файл.

Вверх