Loading...
Error

Александр Невзоров: "Уроки атеизма" [2012 г., документальный, TVRip]

Статистика раздачи
Размер:  141 MB   |    Зарегистрирован:  3 года 7 месяцев   |    Скачан:  6 раз

Полного источника не было: 6 дней

Сидов:  0  |  0 KB/s  ]   Личеров:  0  |  0 KB/s  ]

* - сиды/пиры с внешних источников

   
 
Автор Сообщение

матроскин Пол:Муж

27-Апр-2013 06:28

Александр Невзоров: "Уроки атеизма"


Год выпуска: 2012
Жанр: документальный
Страна: Россия
Выпущено: Питер ТВ
Сюжет фильма:
Александ Невзоров: церковные паразиты, погрязшие в пьянстве, обжорстве, садомии, блуде, педофилии, ростовщичестве и в грязных помыслах.
Качество видео: TVRip

Продолжительность: 00:15:18
Формат: avi
Видео: DivX 4, 640x480, 1477 kbps
Аудио: русский, оригинал, MP3 2.0, 256 kbps

Код:

General
Complete name                    : C:\Users\Security\Videos\Мамонов\Уроки атеизма.avi
Format                           : AVI
Format/Info                      : Audio Video Interleave
File size                        : 141 MiB
Duration                         : 11mn 18s
Overall bit rate                 : 1 746 Kbps
Writing application              : Lavf52.93.0

Video
ID                               : 0
Format                           : MPEG-4 Visual
Format profile                   : Simple@L1
Format settings, BVOP            : No
Format settings, QPel            : No
Format settings, GMC             : No warppoints
Format settings, Matrix          : Default (H.263)
Codec ID                         : DIVX
Codec ID/Info                    : Project Mayo
Codec ID/Hint                    : DivX 4
Duration                         : 11mn 18s
Bit rate                         : 1 478 Kbps
Width                            : 640 pixels
Height                           : 480 pixels
Display aspect ratio             : 4/3
Frame rate                       : 25.000 fps
Resolution                       : 24 bits
Colorimetry                      : 4:2:0
Scan type                        : Progressive
Bits/(Pixel*Frame)               : 0.192
Stream size                      : 120 MiB (85%)
Writing library                  : Lavc52.108.0

Audio
ID                               : 1
Format                           : MPEG Audio
Format version                   : Version 1
Format profile                   : Layer 3
Codec ID                         : 55
Codec ID/Hint                    : MP3
Duration                         : 11mn 18s
Bit rate mode                    : Constant
Bit rate                         : 256 Kbps
Channel(s)                       : 2 channels
Sampling rate                    : 44.1 KHz
Resolution                       : 16 bits
Stream size                      : 20.7 MiB (15%)
Alignment                        : Aligned on interleaves
Interleave, duration             : 26 ms (0.65 video frame)
Writing library                  : LAME3.98.4

picpicpicpicpicpic
Для увеличения картинки щелкните мышкой по превью

Этот торрент недоступен для скачивания без регистрации, однако доступен по публичной magnet-ссылке (источники с публичных трекеров). Перед использованием ссылки прочтите, пожалуйста Пользовательское соглашение, а также как можно дольше оставайтесь на раздаче! Для того, чтобы скачать сам торрент-файл (который видит больше источников), а также для того, чтобы поблагодарить релизера, вам необходимо зарегистрироваться. Если регистрироваться лень - вы можете также попробовать скачать релиз по нашим партнерским ссылкам ниже.

[underverse.su].t26691.torrent
Трекер: Зарегистрирован   [ 27.04.2013 06:28 ]  

Статус: проверено (by Печаль'ka at 27.04.2013 08:23)
Поблагодарили: пока никто не поблагодарил...
Тип торрента: публичный - доступные источники с открытых трекеров: 
Размер: 141 MB (занимает 0,03 DVDR, для записи нужно 1 болванка DVDR/RW)
 
 
Похожие темы
Форум Тема Автор Торрент Отв. Посл. сооб.
Зарубежное кино [DVDRip, Low-Res HDRip, и т.д.] Александр / Alexander (Оливер Стоун) [2004 г., боевик, мелодрама, драма, приключения, военный, биография, история, ..., HD DVDRip] Joey
1 | 0

1 | 1201

7

17.06.2010 12:55

Зарубежное кино [DVDRip, Low-Res HDRip, и т.д.] Александр / Alexander (Оливер Стоун) [2004 г., боевик, драма, мелодрама, приключения, военный, биография, история, HDRip ] Dub ryzhkovroman
0 | 0

6 | 1278

1

18.02.2013 17:27

Зарубежное кино [DVDRip, Low-Res HDRip, и т.д.] Александр и ужасный, кошмарный, нехороший, очень плохой день / Alexander and the Terrible, Horrible, No Good, Very Bad Day (Мигель Артета / Miguel Arteta) [2014 г., комедия, семейный, HDRip] Dub 90ytr90
18 | 0

0 | 430

14

09.02.2015 16:55

Зарубежное кино [DVDRip, Low-Res HDRip, и т.д.] Александр и ужасный, кошмарный, нехороший, очень плохой день / Alexander and the Terrible, Horrible, No Good, Very Bad Day (Мигель Артета / Miguel Arteta) [2014 г., комедия, семейный, HDRip] Dub 90ytr90
1 | 0

0 | 463

8

09.02.2015 17:33

Кино СССР Александр Невский (Сергей Эйзенштейн, Дмитрий Васильев, Борис Иванов) [1938 г., история, DVDRip] 90ytr90
2 | 0

0 | 838

6

06.12.2014 21:56

Исторические фильмы Александр Великий / Alexander der Grobe (1-2 серии из 2) / (Мартин Казаро Мендез, Кристиан Твенте) [2014 г., документальный, игровой, история, SatRip] DVO (Видеофильм ТВ) ARI71
5 | 0

1 | 427

5

16.10.2016 08:07

Личности Александр Блок. Я медленно сходил с ума (Анна Филимонова) [2016 г., документальный, биография, SatRip] ARI71
0 | 0

0 | 259

0

21.11.2016 14:54

Личности Александр Кайдановский. По лезвию бритвы (Лариса Кичаева) [2016 г., документальный, кинематограф, биография, IPTVRip] ARI71
4 | 0

1 | 552

1

02.10.2016 18:01

Личности Александр Зацепин. Этот мир придуман не мной (Филипп Сурков) [2010 г., документальный, биография, искусство, культура, SatRip] ARI71
0 | 0

0 | 634

1

21.07.2016 18:16

Личности Александр Кайдановский. Сжимая лезвие в ладони (Вера Травкина) [2016 г., документальный, биография, SatRip] ARI71
0 | 0

0 | 557

6

23.07.2016 09:00

матроскин Пол:Муж

27-Апр-2013 06:30

Качайте и смотрите документальные телепередачи

Яндекс.Метрика powered by Sphinx


В Н И М А Н И Е
Сайт не распространяет и не хранит электронные версии произведений, а лишь бесплатно и без коммерческой выгоды (не требуя взамен платы,
SMS и т.д.) предоставляет доступ к создаваемому пользователями каталогу ссылок на торрент-файлы, которые содержат только списки хеш-сумм.
Убедительная просьба с жалобами обращаться напрямую к пользователю, разместившему торрент файл.

Вверх