Loading...
Error

Пресс-конференция [2013 г., документальный, TVRip]

Статистика раздачи
Размер:  590 MB   |    Зарегистрирован:  3 года 7 месяцев   |    Скачан:  0 раз
Сидов:  1  |  0 KB/s  ]   Личеров:  0  |  0 KB/s  ]

* - сиды/пиры с внешних источников

   
 
Автор Сообщение

матроскин Пол:Муж

27-Апр-2013 06:10

Пресс-конференция


Год выпуска: 2013
Жанр: документальный
Страна: Россия
Выпущено: 3 канал ТВЦ
Сюжет фильма:
Смотрите в этой передаче: Зюганов Г.А. отвечает на вопросы журналистов, Генерал Комоедов В.П. о развале военно-промышленного комплекса, Зюганов Г.А. возложил цветы на могилу Сталину И.В, как живет современная Белоруссия , поздравление с Международным Женским Днем 8 марта.
Качество видео: TVRip

Продолжительность: 00:34:21
Формат: avi
Видео: DivX 4, 640x480, 2131 kbps
Аудио: русский, оригинал, MP3 2.0, 256 kbps

Код:

General
Complete name                    : C:\Users\Security\Videos\Мамонов\Пресс-конференция.avi
Format                           : AVI
Format/Info                      : Audio Video Interleave
File size                        : 590 MiB
Duration                         : 34mn 21s
Overall bit rate                 : 2 400 Kbps
Writing application              : Lavf52.93.0

Video
ID                               : 0
Format                           : MPEG-4 Visual
Format profile                   : Simple@L1
Format settings, BVOP            : No
Format settings, QPel            : No
Format settings, GMC             : No warppoints
Format settings, Matrix          : Default (H.263)
Codec ID                         : DIVX
Codec ID/Info                    : Project Mayo
Codec ID/Hint                    : DivX 4
Duration                         : 34mn 21s
Bit rate                         : 2 131 Kbps
Width                            : 640 pixels
Height                           : 480 pixels
Display aspect ratio             : 4/3
Frame rate                       : 25.000 fps
Resolution                       : 24 bits
Colorimetry                      : 4:2:0
Scan type                        : Progressive
Bits/(Pixel*Frame)               : 0.278
Stream size                      : 524 MiB (89%)
Writing library                  : Lavc52.108.0

Audio
ID                               : 1
Format                           : MPEG Audio
Format version                   : Version 1
Format profile                   : Layer 3
Codec ID                         : 55
Codec ID/Hint                    : MP3
Duration                         : 34mn 21s
Bit rate mode                    : Constant
Bit rate                         : 256 Kbps
Channel(s)                       : 2 channels
Sampling rate                    : 44.1 KHz
Resolution                       : 16 bits
Stream size                      : 62.9 MiB (11%)
Alignment                        : Aligned on interleaves
Interleave, duration             : 26 ms (0.65 video frame)
Writing library                  : LAME3.98.4

picpicpicpicpic
Для увеличения картинки щелкните мышкой по превью

Этот торрент недоступен для скачивания без регистрации, однако доступен по публичной magnet-ссылке (источники с публичных трекеров). Перед использованием ссылки прочтите, пожалуйста Пользовательское соглашение, а также как можно дольше оставайтесь на раздаче! Для того, чтобы скачать сам торрент-файл (который видит больше источников), а также для того, чтобы поблагодарить релизера, вам необходимо зарегистрироваться. Если регистрироваться лень - вы можете также попробовать скачать релиз по нашим партнерским ссылкам ниже.

[underverse.su].t26689.torrent
Трекер: Зарегистрирован   [ 27.04.2013 06:10 ]  

Статус: проверено (by Печаль'ka at 27.04.2013 08:23)
Поблагодарили: пока никто не поблагодарил...
Тип торрента: публичный - доступные источники с открытых трекеров: 
Размер: 590 MB (занимает 0,13 DVDR, для записи нужно 1 болванка DVDR/RW)
 
 
Похожие темы
Форум Тема Автор Торрент Отв. Посл. сооб.
Информационно-аналитические передачи Пресс-конференция КПРФ [2013 г., документальный, HDTVRip] матроскин
1 | 0

3 | 812

0

01.04.2013 19:36

Информационно-аналитические передачи Пресс-конференция Путина 4 марта 2014 г [2014 г., документальный, TVRip] матроскин
0 | 0

1 | 1993

10

05.03.2014 09:52

Другие фильмы Пресс-конференция Януковича В.Ф. [2014 г., документальный, TVRip] матроскин
1 | 0

5 | 1414

8

02.03.2014 09:32

матроскин Пол:Муж

27-Апр-2013 06:19

Качайте и смотрите документальные телепередачи

Яндекс.Метрика powered by Sphinx


В Н И М А Н И Е
Сайт не распространяет и не хранит электронные версии произведений, а лишь бесплатно и без коммерческой выгоды (не требуя взамен платы,
SMS и т.д.) предоставляет доступ к создаваемому пользователями каталогу ссылок на торрент-файлы, которые содержат только списки хеш-сумм.
Убедительная просьба с жалобами обращаться напрямую к пользователю, разместившему торрент файл.

Вверх