Loading...
Error

Тайна перевала Дятлова / The Dyatlov Pass Incident (Ренни Харлин / Renny Harlin) [2013, Ужасы, триллер, BDRip] MVO (R5)

Статистика раздачи
Размер:  746 MB   |    Зарегистрирован:  3 года 7 месяцев   |    Скачан:  27 раз

Полного источника не было: 4 месяца 24 дня

Сидов:  0  |  0 KB/s  ]   Личеров:  0  |  0 KB/s  ]

* - сиды/пиры с внешних источников

   
 
Автор Сообщение

Garnett Пол:Муж

26-Апр-2013 16:57

Тайна перевала Дятлова / The Dyatlov Pass Incident

Год выхода: 2013
Выпущено: Россия, США / Aldamisa Entertainment, K. JAM Media, Future Films
Жанр: ужасы, триллер
Продолжительность: 01:40:24
Перевод: Профессиональный (многоголосый закадровый) R5
Cубтитры: нет
Режиссер:
Ренни Харлин / Renny Harlin
В ролях:
Джемма Аткинсон, Ричард Рейд, Мэтт Стокоу, Холли Госс, Райан Хоули, Люк Олбрайт, Анастасия Бурдина, Николай Бутенин, Валерий Федорович, Нелли Нилсен
О фильме:
Сюжет фильма основан на реальных событиях, произошедших в 1959-м году. В 2012-м году группа американских студентов, получив грант, отправляется на уральские горы, следуя тем же маршрутом, что и группа Дятлова, чтобы попытаться восстановить картину и разгадать причину таинственной, мистической и до сих пор не разгаданной гибели советских лыжников.
Контейнер: AVI
Качество: BDRip
Видео: 656x368 (1.78:1), 24 fps, XviD build 65 ~900 kbps avg, 0.16 bit/pixel
Аудио: 48 kHz, MPEG Layer 3, 2 ch, ~128.00 kbps avg

picpicpic


Код:

Общее
Полное имя                               : H:\Taina_perevala_Dyatlova_2013_BDRip_745_by_Dalemake.avi
Формат                                   : AVI
Формат/Информация                        : Audio Video Interleave
Размер файла                             : 746 Мбайт
Продолжительность                        : 1 ч. 40 м.
Общий поток                              : 1038 Кбит/сек
Программа кодирования                    : VirtualDubMod 1.5.10.3 | www.virtualdub-fr.org || (build 2550/release)
Библиотека кодирования                   : VirtualDubMod build 2550/release

Видео
Идентификатор                            : 0
Формат                                   : MPEG-4 Visual
Профиль формата                          : Advanced Simple@L5
Параметр BVOP формата                    : 1
Параметр QPel формата                    : Нет
Параметр GMC формата                     : Без точки перехода
Параметр матрицы формата                 : Выборочная
Идентификатор кодека                     : XVID
Идентификатор кодека/Подсказка           : XviD
Продолжительность                        : 1 ч. 40 м.
Битрейт                                  : 901 Кбит/сек
Ширина                                   : 656 пикселей
Высота                                   : 368 пикселей
Соотношение сторон                       : 16:9
Частота кадров                           : 24,000 кадра/сек
Цветовое пространство                    : YUV
Субдискретизация насыщенности            : 4:2:0
Битовая глубина                          : 8 бит
Тип развёртки                            : Прогрессивная
Метод сжатия                             : С потерями
Бит/(Пиксели*Кадры)                      : 0.156
Размер потока                            : 647 Мбайт (87%)
Библиотека кодирования                   : XviD 65

Аудио
Идентификатор                            : 1
Формат                                   : MPEG Audio
Версия формата                           : Version 1
Профиль формата                          : Layer 3
Идентификатор кодека                     : 55
Идентификатор кодека/Подсказка           : MP3
Продолжительность                        : 1 ч. 40 м.
Вид битрейта                             : Постоянный
Битрейт                                  : 128 Кбит/сек
Каналы                                   : 2 канала
Частота                                  : 48,0 КГц
Метод сжатия                             : С потерями
Размер потока                            : 91,9 Мбайт (12%)
Выравнивание                             : Соединение по промежуткам
Продолжительность промежутка             : 42  мс. (1,00 видеокадр)
Время предзагрузки промежутка            : 504  мс.
Библиотека кодирования                   : LAME3.99r
Настройки программы                      : -m s -V 4 -q 2 -lowpass 17 -b 128

Этот торрент недоступен для скачивания без регистрации, однако доступен по публичной magnet-ссылке (источники с публичных трекеров). Перед использованием ссылки прочтите, пожалуйста Пользовательское соглашение, а также как можно дольше оставайтесь на раздаче! Для того, чтобы скачать сам торрент-файл (который видит больше источников), а также для того, чтобы поблагодарить релизера, вам необходимо зарегистрироваться. Если регистрироваться лень - вы можете также попробовать скачать релиз по нашим партнерским ссылкам ниже.

[underverse.su].t26663.torrent
Трекер: Зарегистрирован   [ 26.04.2013 16:57 ]  

Статус: проверено (by Чертёнок at 26.04.2013 17:12)
Поблагодарили: 1 человек
Тип торрента: публичный - доступные источники с открытых трекеров: 
Размер: 746 MB (занимает 0,17 DVDR, для записи нужно 1 болванка DVDR/RW)
 
 
Похожие темы
Форум Тема Автор Торрент Отв. Посл. сооб.
Зарубежное кино [DVDRip, Low-Res HDRip, и т.д.] Тайна перевала Дятлова (Ренни Харлин) [2013 г., триллер, ужасы, фантастика, BDRip] MVO [лицензия] TERRAN
202 | 5

2 | 1508

114

18.04.2013 15:09

Зарубежное кино [DVDRip, Low-Res HDRip, и т.д.] Тайна перевала Дятлова / The Dyatlov Pass Incident (Ренни Харлин) [2013 г., ужасы, триллер, HDRip-AVC] MVO 90ytr90
51 | 0

0 | 1107

55

18.04.2013 14:14

Зарубежное кино HQ Тайна перевала Дятлова / The Dyatlov Pass Incident (Ренни Харлин) [2013 г., триллер, ужасы, фантастика, BDRip] MVO HQ Underverse HQ Underverse
0 | 0

0 | 2354

213

19.04.2013 12:45

Зарубежное кино [DVD / HDDVD / BD / Remux] Тайна перевала Дятлова / The Dyatlov Pass Incident (Ренни Харлин / Renny Harlin) [2013, Россия, США, триллер, ужасы, фантастика, DVD5 (Сжатый)] MVO TERRAN
3 | 0

0 | 997

13

22.04.2013 17:04

Зарубежное кино [DVD / HDDVD / BD / Remux] Тайна перевала Дятлова / The Dyatlov Pass Incident (Ренни Харлин / Renny Harlin) [2013, Россия, США, триллер, ужасы, фантастика, Blu-ray Disc 1080p] MVO TERRAN
3 | 0

0 | 1164

14

24.04.2013 17:28

Зарубежное кино [HDDVDRip / BDRip / WEB-DL / HDTV 1080/720р] Тайна перевала Дятлова / The Dyatlov Pass Incident (Ренни Харлин / Renny Harlin) [2013 г., триллер, ужасы, фантастика, BDRip 1080p] MVO 90ytr90
1 | 0

0 | 397

8

26.04.2013 20:28


Яндекс.Метрика powered by Sphinx


В Н И М А Н И Е
Сайт не распространяет и не хранит электронные версии произведений, а лишь бесплатно и без коммерческой выгоды (не требуя взамен платы,
SMS и т.д.) предоставляет доступ к создаваемому пользователями каталогу ссылок на торрент-файлы, которые содержат только списки хеш-сумм.
Убедительная просьба с жалобами обращаться напрямую к пользователю, разместившему торрент файл.

Вверх