Loading...
Error

Сломленные / Broken (Руфус Норрис / Rufus Norris) [2012, Великобритания, драма, DVDRip] MVO

Статистика раздачи
Размер:  745 MB   |    Зарегистрирован:  3 года 7 месяцев   |    Скачан:  3 раза

Полного источника не было: 2 года 7 месяцев

Сидов:  0  |  0 KB/s  ]   Личеров:  0  |  0 KB/s  ]

* - сиды/пиры с внешних источников

   
 
Автор Сообщение

Garnett Пол:Муж

26-Апр-2013 16:53

Сломленные / Broken

Страна: Великобритания
Жанр: драма
Год выпуска: 2012
Продолжительность: 01:27:12
Перевод: Профессиональный (многоголосый закадровый)
Cубтитры: нет
Оригинальная аудиодорожка: нет
Режиссер: Руфус Норрис / Rufus Norris
В ролях: Тим Рот, Киллиан Мёрфи, Элуиз Лоуренс, Рори Киннер, Дэнис Лосон, Билл Милнер, Зана Марьянович, Роберт Эммс, Лино Фасиоль, Нелл Тайгер Фри
Описание: Девчонке по кличке Сканк (Вонючка) — 11 лет. У неё диабет. Она — классная. Только начались летние каникулы, и дни её полны лёгких надежд. Но противный дядька из дома напротив, избивает Рика, доброго, но очень ранимого соседского паренька, поскольку его дочь обвиняет Рика в изнасиловании. Мир вокруг стремительно рушится; Сканк ищет утешения в тихой дружбе с Риком, но запутывается окончательно.
Качество видео: DVDRip
Формат видео: AVI
Видео: 640x352 (1.82:1), 25 fps, XviD MPEG-4 ~1056 kbps avg, 0.19 bit/pixel
Аудио: Russian (48 kHz, MPEG Layer 3, 2 ch, ~128.00 kbps avg)


Общее
Полное имя : F:Slomlennye.2012.P.DVDRip.avi
Формат : AVI
Формат/Информация : Audio Video Interleave
Размер файла : 745 Мбайт
Продолжительность : 1 ч. 27 м.
Общий поток : 1194 Кбит/сек
Название фильма : Slomlennye.2012.P.DVDRip
Режиссёр : Modepido
Программа кодирования : VirtualDubMod 1.5.10.2 (build 2540/release)

Видео
Идентификатор : 0
Формат : MPEG-4 Visual
Профиль формата : Advanced Simple@L5
Параметр BVOP формата : 1
Параметр QPel формата : Нет
Параметр GMC формата : Без точки перехода
Параметр матрицы формата : Выборочная
Идентификатор кодека : DX50
Идентификатор кодека/Подсказка : DivX 5
Продолжительность : 1 ч. 27 м.
Битрейт : 1057 Кбит/сек
Ширина : 640 пикс.
Высота : 352 пикс.
Соотношение сторон : 16:9
Частота кадров : 25,000 кадр/сек
Цветовое пространство : YUV
Подвыборка цветности : 4:2:0
Битовая глубина : 8 бит
Тип развёртки : Прогрессивная
Метод сжатия : С потерями
Бит/(Пиксели*Кадры) : 0.188
Размер потока : 659 Мбайт (88%)
Библиотека кодирования : XviD 73

Аудио
Идентификатор : 1
Формат : MPEG Audio
Версия формата : Version 1
Профиль формата : Layer 3
Режим : Joint stereo
Расширение режима : MS Stereo
Идентификатор кодека : 55
Идентификатор кодека/Подсказка : MP3
Продолжительность : 1 ч. 27 м.
Вид битрейта : Постоянный
Битрейт : 128 Кбит/сек
Каналы : 2 канала
Частота : 48,0 КГц
Метод сжатия : С потерями
Размер потока : 79,8 Мбайт (11%)
Выравнивание : Соединение по промежуткам
Продолжительность промежутка : 40 мс. (1,00 видеокадр)
Время предзагрузки промежутка : 504 ms
picpicpic

Этот торрент недоступен для скачивания без регистрации, однако доступен по публичной magnet-ссылке (источники с публичных трекеров). Перед использованием ссылки прочтите, пожалуйста Пользовательское соглашение, а также как можно дольше оставайтесь на раздаче! Для того, чтобы скачать сам торрент-файл (который видит больше источников), а также для того, чтобы поблагодарить релизера, вам необходимо зарегистрироваться. Если регистрироваться лень - вы можете также попробовать скачать релиз по нашим партнерским ссылкам ниже.

[underverse.su].t26662.torrent
Трекер: Зарегистрирован   [ 26.04.2013 16:53 ]  

Статус: проверено (by Чертёнок at 26.04.2013 17:11)
Поблагодарили: 1 человек
Тип торрента: публичный - доступные источники с открытых трекеров: 
Размер: 745 MB (занимает 0,17 DVDR, для записи нужно 1 болванка DVDR/RW)
 
 
Похожие темы
Форум Тема Автор Торрент Отв. Посл. сооб.
Зарубежное кино [DVDRip, Low-Res HDRip, и т.д.] Сломленные / Broken (Руфус Норрис) [2012 г., драма, DVDRip] MVO + Original Паукан
1 | 0

0 | 3521

10

12.02.2013 15:43

Зарубежное кино [DVDRip, Low-Res HDRip, и т.д.] Сломленные / Broken (Руфус Норрис) [2012 г., драма, HDRip] MVO Паукан
4 | 0

0 | 758

12

10.07.2013 11:30


Яндекс.Метрика powered by Sphinx


В Н И М А Н И Е
Сайт не распространяет и не хранит электронные версии произведений, а лишь бесплатно и без коммерческой выгоды (не требуя взамен платы,
SMS и т.д.) предоставляет доступ к создаваемому пользователями каталогу ссылок на торрент-файлы, которые содержат только списки хеш-сумм.
Убедительная просьба с жалобами обращаться напрямую к пользователю, разместившему торрент файл.

Вверх