Loading...
Error

Таинственный Альберт Ноббс / Albert Nobbs (Родриго Гарсия / Rodrigo Garcia) [2011, Великобритания, Ирландия, Франция, США, драма, HDRip] MVO

Статистика раздачи
Размер:  1,45 GB   |    Зарегистрирован:  3 года 7 месяцев   |    Скачан:  11 раз

Полного источника не было: 1 год 8 месяцев

Сидов:  0  |  0 KB/s  ]   Личеров:  0  |  0 KB/s  ]

* - сиды/пиры с внешних источников

   
 
Автор Сообщение

Garnett Пол:Муж

26-Апр-2013 16:50

Таинственный Альберт Ноббс / Albert Nobbs

Страна: Великобритания, Ирландия, Франция, США
Жанр: драма
Год выпуска: 2011
Продолжительность: 01:53:28
Перевод: Профессиональный (многоголосый закадровый)
Cубтитры: нет
Режиссер: Родриго Гарсия / Rodrigo Garcнa

В ролях: Гленн Клоуз, Миа Васиковска, Аарон Джонсон, Джанет МакТир, Брендан Глисон, Джонатан Риз Мейерс, Антония Кэмпбелл-Хьюджес, Полин Коллинз, Мария Дойл Кеннеди, Марк Уильямс.

Описание: 1898 год, Дублин. В небольшой гостинице Morrison’s живут самые разные люди: сбежавший от жены престарелый доктор Холлоран, французские снобы мадам и мсье Пиго, экономное семейство Мур, не чуждый гомоэротических утех виконт Яррелл и его супруга со схожими сексуальными предпочтениями… И каждому из них стремится услужить официант Альберт Ноббс.
Ему чуть больше сорока, и он успел поработать в лучших заведениях Лондона, Бристоля и Ливерпуля. Личной жизни у него практически нет. Пабам и варьете Ноббс предпочитает тихие вечера в своей каморке и бесконечное пересчитывание сбережений. Коллеги практически не обращают на него внимания, и это ему даже на руку. Ведь на самом деле Альберт — женщина, уже около тридцати лет успешно выдающая себя за представителя сильного пола…
Автор рипа: Scarabey
Качество видео: HDRip
Формат видео: AVI | Sample
Видео: 720x304 (2.35:1), 23.976 fps, XviD build 50 ~1437 kbps avg, 0.27 bit/pixel
Аудио: 48 kHz, AC3 Dolby Digital, 3/2 (L,C,R,l,r) + LFE ch, ~384.00 kbps avg
picpicpic


General
Complete name : D:\Торрент\Tainstvennyj.Albert.Nobbs.2011.HDRip.by.Scarabey.avi
Format : AVI
Format/Info : Audio Video Interleave
File size : 1.45 GiB
Duration : 1h 53mn
Overall bit rate : 1 831 Kbps
Writing application : VirtualDubMod 1.5.10.2 (build 2540/release)
Writing library : VirtualDubMod build 2540/release

Video
ID : 0
Format : MPEG-4 Visual
Format profile : Advanced Simple@L5
Format settings, BVOP : 1
Format settings, QPel : No
Format settings, GMC : No warppoints
Format settings, Matrix : Custom
Codec ID : XVID
Codec ID/Hint : XviD
Duration : 1h 53mn
Bit rate : 1 437 Kbps
Width : 720 pixels
Height : 304 pixels
Display aspect ratio : 2.35:1
Frame rate : 23.976 fps
Color space : YUV
Chroma subsampling : 4:2:0
Bit depth : 8 bits
Scan type : Progressive
Compression mode : Lossy
Bits/(Pixel*Frame) : 0.274
Stream size : 1.14 GiB (79%)
Writing library : XviD 1.2.1 (UTC 2008-12-04)

Audio
ID : 1
Format : AC-3
Format/Info : Audio Coding 3
Mode extension : CM (complete main)
Format settings, Endianness : Big
Codec ID : 2000
Duration : 1h 53mn
Bit rate mode : Constant
Bit rate : 384 Kbps
Channel(s) : 6 channels
Channel positions : Front: L C R, Side: L R, LFE
Sampling rate : 48.0 KHz
Bit depth : 16 bits
Compression mode : Lossy
Stream size : 312 MiB (21%)
Alignment : Split accross interleaves
Interleave, duration : 42 ms (1.00 video frame)
Interleave, preload duration : 500 ms

Этот торрент недоступен для скачивания без регистрации, однако доступен по публичной magnet-ссылке (источники с публичных трекеров). Перед использованием ссылки прочтите, пожалуйста Пользовательское соглашение, а также как можно дольше оставайтесь на раздаче! Для того, чтобы скачать сам торрент-файл (который видит больше источников), а также для того, чтобы поблагодарить релизера, вам необходимо зарегистрироваться. Если регистрироваться лень - вы можете также попробовать скачать релиз по нашим партнерским ссылкам ниже.

[underverse.su].t26661.torrent
Трекер: Зарегистрирован   [ 26.04.2013 16:50 ]  

Статус: проверено (by Чертёнок at 26.04.2013 17:09)
Поблагодарили: 1 человек
Тип торрента: публичный - доступные источники с открытых трекеров: 
Размер: 1,45 GB (занимает 1/3 DVDR, для записи нужно 1 болванка DVDR/RW)
 
 
Похожие темы
Форум Тема Автор Торрент Отв. Посл. сооб.
Зарубежное кино [DVDRip, Low-Res HDRip, и т.д.] Таинственный Альберт Ноббс / Albert Nobbs (Родриго Гарсия) [2011 г., драма, HDRip] RG NewCinema
0 | 0

0 | 444

1

20.06.2012 15:12

Зарубежное кино [DVDRip, Low-Res HDRip, и т.д.] Таинственный остров / Mysterious Island (Кай Чунг Чунг / Kai Cheung Chung) [2011 г., ужасы, DVDRip] VO (den904) 90ytr90
2 | 0

0 | 530

6

24.09.2012 15:08

Зарубежное кино [DVDRip, Low-Res HDRip, и т.д.] Таинственный путь / Mystery Road (Иван Сен) [2013 г., триллер, детектив, HDRip] VO [datynet] Паукан
4 | 0

0 | 1292

22

30.04.2014 11:50

BBC Таинственный мир гормонов / The Fantastical World of Hormones with Professor John Wass (Джеймс Сенди) [2014 г., документальный, научно-познавательный, HDTVRip 720p] Dub + Original (Eng) + Sub (Eng) ARI71
0 | 0

1 | 371

3

24.09.2016 21:25

BBC Таинственный мир гормонов / The Fantastical World of Hormones with Professor John Wass (Джеймс Сенди) [2014 г., документальный, научно-познавательный, HDTVRip] Dub (Видеофильм ТВ) ARI71
65 | 0

1 | 496

6

04.10.2016 11:29

Научно-популярные фильмы Таинственная Россия - Пермский край [2011 г., документальный, TVRip] матроскин
0 | 0

2 | 711

9

02.05.2015 20:30

Научно-популярные фильмы Таинственная Россия - Ставропольский край [2013 г., документальный, TVRip] матроскин
0 | 0

2 | 719

9

02.05.2015 20:27

Релизы Таинственные сказки: Околдованный город. Коллекционное издание / Shrouded Tales: The Spellbound Land. Collector's Edition [2014 г., Квест, Поиск Предметов] RUS [P] Станислав Карбанович
57 | 1

1 | 898

16

25.02.2015 17:20

* Архив Таинственный остров (Владимир Тихий) [2008 г., триллер, DVDRip] seriiko

7 | 1611

29.08.2010 23:52

Архив Таинственная игра / Fushigi Yuugi / Mysterious Play / TV-series, 1-52 из 52 (Камэгаки Хадзимэ) [1995 г., приключения, романтика, фэнтези, сёдзё, DVD-9] Печаль'ka
0 | 0

2 | 2173

0

17.02.2011 14:46


Яндекс.Метрика powered by Sphinx


В Н И М А Н И Е
Сайт не распространяет и не хранит электронные версии произведений, а лишь бесплатно и без коммерческой выгоды (не требуя взамен платы,
SMS и т.д.) предоставляет доступ к создаваемому пользователями каталогу ссылок на торрент-файлы, которые содержат только списки хеш-сумм.
Убедительная просьба с жалобами обращаться напрямую к пользователю, разместившему торрент файл.

Вверх