Loading...
Error

Тихая гавань / Safe Haven (Лассе Халльстрём / Lasse Hallstrom) [2013 г., США, драма, мелодрама, детектив, BDRip-AVC] Dub

Статистика раздачи
Размер:  1,45 GB   |    Зарегистрирован:  3 года 7 месяцев   |    Скачан:  16 раз

Полного источника не было: 1 месяц 12 дней

Сидов:  0  |  0 KB/s  ]   Личеров:  0  |  0 KB/s  ]

* - сиды/пиры с внешних источников

   
 
Автор Сообщение

Garnett Пол:Муж

26-Апр-2013 16:44

Тихая гавань / Safe Haven

Страна: США
Студия: Nicholas Sparks Productions
Жанр: драма, мелодрама, детектив
Год выпуска: 2013
Продолжительность: 01:55:38
Перевод: Профессиональный (дублированный) [Blu-ray Rus]
Cубтитры: нет
Режиссер: Лассе Халльстрём / Lasse Hallstrom

В ролях: Джош Дюамель, Джулианна Хаф, Коби Смолдерс, Дэвид Лайонс, Ирен Циглер, Джон Кохлер, Тим Парати, Джулия Пагано, Хуан Пьедраита, Ред Уэст

Описание: Кэти много лет страдала от жестокости мужа. Потеряв надежду на спасение, она совершила отчаянный побег и обрела «тихую гавань» в маленьком спокойном южном городке. Но готова ли Кэти к новым отношениям? Способна ли вновь поверить мужчине, понять его и полюбить? Даже если речь идет о таком обаятельном человеке, как молодой вдовец Алекс Уитли. Алекс и Кэти идут по тонкому льду неизвестности, — а между тем муж Кэти уже начал ее поиски.

Релиз: fanatus
Качество видео: BDRip-AVC
Исходник: Blu-ray 1080p [US]
Контейнер: MKV

Видео: MPEG-4 AVC, 1348 kbps , 960x400 (2.40:1), 23.976 fps, 0.146 bit/pixel
Аудио : русский (AC3, 6 ch, 48 kHz, 448 kbps)
Главы: есть
General
Unique ID : 207168751982343762023477354630334496383 (0x9BDB40138E896125960F5B54EE35BE7F)
Complete name : D:\Tihaya.gavan.2013.x264.BDRip.(AVC).fanatus.mkv
Format : Matroska
Format version : Version 2
File size : 1.45 GiB
Duration : 1h 55mn
Overall bit rate : 1 797 Kbps
Movie name : Safe Haven (2013) - fanatus
Encoded date : UTC 2013-04-25 16:04:38
Writing application : mkvmerge v3.4.0 ('Rapunzel') сборка от May 15 2010 09:38:20
Writing library : libebml v0.8.0 + libmatroska v0.9.0

Video
ID : 1
Format : AVC
Format/Info : Advanced Video Codec
Format profile : High@L4.1
Format settings, CABAC : Yes
Format settings, ReFrames : 12 frames
Codec ID : V_MPEG4/ISO/AVC
Duration : 1h 55mn
Bit rate : 1 348 Kbps
Width : 960 pixels
Height : 400 pixels
Display aspect ratio : 2.40:1
Frame rate : 23.976 fps
Color space : YUV
Chroma subsampling : 4:2:0
Bit depth : 8 bits
Scan type : Progressive
Bits/(Pixel*Frame) : 0.146
Stream size : 1.06 GiB (73%)
Title : Safe Haven (2013)
Writing library : x264 core 130 r2273 b3065e6
Encoding settings : cabac=1 / ref=12 / deblock=1:-2:-1 / analyse=0x3:0x113 / me=umh / subme=11 / psy=1 / psy_rd=0.97:0.02 / mixed_ref=1 / me_range=48 / chroma_me=1 / trellis=2 / 8x8dct=1 / cqm=0 / deadzone=21,11 / fast_pskip=0 / chroma_qp_offset=-3 / threads=16 / lookahead_threads=3 / sliced_threads=0 / nr=0 / decimate=0 / interlaced=0 / bluray_compat=0 / constrained_intra=0 / bframes=12 / b_pyramid=2 / b_adapt=2 / b_bias=0 / direct=3 / weightb=1 / open_gop=0 / weightp=2 / keyint=240 / keyint_min=23 / scenecut=40 / intra_refresh=0 / rc_lookahead=240 / rc=2pass / mbtree=0 / bitrate=1348 / ratetol=1.0 / qcomp=0.60 / qpmin=0 / qpmax=69 / qpstep=4 / cplxblur=20.0 / qblur=0.5 / vbv_maxrate=50000 / vbv_bufsize=62500 / nal_hrd=none / ip_ratio=1.40 / pb_ratio=1.30 / aq=1:0.95 / zones=158900,166368,q=35
Language : English
Default : Yes
Forced : No

Audio
ID : 2
Format : AC-3
Format/Info : Audio Coding 3
Mode extension : CM (complete main)
Format settings, Endianness : Big
Codec ID : A_AC3
Duration : 1h 55mn
Bit rate mode : Constant
Bit rate : 448 Kbps
Channel(s) : 6 channels
Channel positions : Front: L C R, Side: L R, LFE
Sampling rate : 48.0 KHz
Bit depth : 16 bits
Compression mode : Lossy
Stream size : 371 MiB (25%)
Title : Dub
Language : Russian
Default : Yes
Forced : No

Menu
00:00:00.000 : en:Chapter 01
00:10:43.267 : en:Chapter 02
00:21:46.179 : en:Chapter 03
00:30:56.771 : en:Chapter 04
00:43:43.245 : en:Chapter 05
00:51:54.945 : en:Chapter 06
01:01:17.715 : en:Chapter 07
01:08:24.350 : en:Chapter 08
01:20:51.888 : en:Chapter 09
01:29:58.142 : en:Chapter 10
01:43:14.605 : en:Chapter 11
01:50:27.662 : en:Chapter 12
01:55:32.842 : en:Chapter 13


-[NoImage] raw [info]: 960x400p 1:1 @ 24000/1001 fps (cfr)
-[NoImage] x264 [info]: using SAR=1/1
-[NoImage] x264 [info]: using cpu capabilities: MMX2 SSE2Fast SSEMisalign LZCNT
-[NoImage] x264 [info]: profile High, level 4.1
-[NoImage]
-[NoImage] x264 [info]: frame I:1208 Avg QP:16.08 size: 52120
-[NoImage] x264 [info]: frame P:39840 Avg QP:19.75 size: 14675
-[NoImage] x264 [info]: frame B:125320 Avg QP:21.61 size: 4162
-[NoImage] x264 [info]: consecutive B-frames: 3.1% 3.8% 10.6% 29.4% 17.8% 22.0% 3.9% 5.7% 1.3% 0.9% 0.5% 0.7% 0.5%
-[NoImage] x264 [info]: mb I I16..4: 6.4% 70.1% 23.5%
-[NoImage] x264 [info]: mb P I16..4: 1.1% 8.1% 1.4% P16..4: 34.0% 37.0% 11.8% 0.0% 0.0% skip: 6.5%
-[NoImage] x264 [info]: mb B I16..4: 0.1% 0.8% 0.1% B16..8: 33.9% 18.6% 2.9% direct: 3.6% skip:40.0% L0:41.1% L1:46.1% BI:12.8%
-[NoImage] x264 [info]: 8x8 transform intra:75.4% inter:62.4%
-[NoImage] x264 [info]: direct mvs spatial:96.1% temporal:3.9%
-[NoImage] x264 [info]: coded y,uvDC,uvAC intra: 83.2% 82.9% 60.6% inter: 16.7% 14.1% 7.6%
-[NoImage] x264 [info]: i16 v,h,dc,p: 29% 13% 6% 53%
-[NoImage] x264 [info]: i8 v,h,dc,ddl,ddr,vr,hd,vl,hu: 12% 8% 4% 9% 13% 15% 13% 14% 13%
-[NoImage] x264 [info]: i4 v,h,dc,ddl,ddr,vr,hd,vl,hu: 14% 9% 5% 8% 14% 15% 12% 11% 12%
-[NoImage] x264 [info]: i8c dc,h,v,p: 37% 23% 22% 18%
-[NoImage] x264 [info]: Weighted P-Frames: Y:3.3% UV:1.8%
-[NoImage] x264 [info]: ref P L0: 51.6% 10.6% 14.6% 5.7% 4.2% 3.4% 2.8% 1.6% 1.4% 1.3% 1.2% 1.3% 0.2% 0.0%
-[NoImage] x264 [info]: ref B L0: 77.2% 9.9% 4.9% 2.3% 1.7% 1.3% 1.1% 0.6% 0.6% 0.4% 0.2%
-[NoImage] x264 [info]: ref B L1: 92.9% 7.1%
-[NoImage] x264 [info]: kb/s:1347.93
-[NoImage] encoded 166368 frames, 15.13 fps, 1347.93 kb/s
picpicpic

Этот торрент недоступен для скачивания без регистрации, однако доступен по публичной magnet-ссылке (источники с публичных трекеров). Перед использованием ссылки прочтите, пожалуйста Пользовательское соглашение, а также как можно дольше оставайтесь на раздаче! Для того, чтобы скачать сам торрент-файл (который видит больше источников), а также для того, чтобы поблагодарить релизера, вам необходимо зарегистрироваться. Если регистрироваться лень - вы можете также попробовать скачать релиз по нашим партнерским ссылкам ниже.

[underverse.su].t26659.torrent
Трекер: Зарегистрирован   [ 26.04.2013 16:44 ]  

Статус: проверено (by Чертёнок at 26.04.2013 17:11)
Поблагодарили: 1 человек
Тип торрента: публичный - доступные источники с открытых трекеров: 
Размер: 1,45 GB (занимает 1/3 DVDR, для записи нужно 1 болванка DVDR/RW)
 
 
Похожие темы
Форум Тема Автор Торрент Отв. Посл. сооб.
Зарубежное кино [DVDRip, Low-Res HDRip, и т.д.] Тихая гавань / Safe Haven (Лассе Халльстрём) [2013 г., триллер, драма, мелодрама, детектив, DVDRip] Dub 90ytr90
0 | 8

1 | 973

17

05.05.2013 20:04

Зарубежное кино [DVDRip, Low-Res HDRip, и т.д.] Тихая гавань / Safe Haven (Лассе Халльстрём) [2013 г., триллер, драма, мелодрама, детектив, DVDRip-AVC] Dub 90ytr90
3 | 0

0 | 462

4

15.04.2013 16:55

Зарубежное кино [DVDRip, Low-Res HDRip, и т.д.] Тихая гавань / Safe Haven (Лассе Халльстрём) [2013 г., триллер, драма, мелодрама, детектив, BDRip] Dub 90ytr90
0 | 0

0 | 1230

47

15.04.2013 17:03

Зарубежное кино [DVDRip, Low-Res HDRip, и т.д.] Тихая гавань / Safe Haven (Лассе Халльстрём) [2013 г., триллер, драма, мелодрама, детектив, HDRip] Dub TERRAN
1 | 0

0 | 514

8

15.04.2013 17:04

Зарубежное кино [DVDRip, Low-Res HDRip, и т.д.] Тихая гавань / Safe Haven (Лассе Халльстрём / Lasse Hallstrom) [2013 г., триллер, драма, мелодрама, детектив, BDRip-AVC] Dub 90ytr90
0 | 0

0 | 1088

17

22.04.2013 14:30

Зарубежное кино [DVDRip, Low-Res HDRip, и т.д.] Тихая гавань / Safe Haven (Лассе Халльстрём) [2013 г., триллер, драма, мелодрама, детектив, BDRip] Dub + Eng 90ytr90
31 | 1

0 | 1016

7

06.05.2013 17:30

Зарубежное кино [DVDRip, Low-Res HDRip, и т.д.] Тихая гавань / Safe Haven (Лассе Халльстрём / Lasse Hallström) [2013 г., триллер, драма, мелодрама, BDRip] Dub Gaarochi
37 | 2

0 | 614

4

08.05.2013 07:48

Зарубежное кино [HDDVDRip / BDRip / WEB-DL / HDTV 1080/720р] Тихая гавань / Safe Haven (Лассе Халльстрём / Lasse Hallstrom) [2013 г., триллер, драма, мелодрама, детектив, BDRip 720p] Dub 90ytr90
1 | 0

0 | 364

5

23.04.2013 18:14

Зарубежное кино [HDDVDRip / BDRip / WEB-DL / HDTV 1080/720р] Тихая гавань / Safe Haven (Лассе Халльстрём / Lasse Hallstrom) [2013 г., триллер, драма, мелодрама, детектив, BDRip 1080p] Dub 90ytr90
1 | 0

0 | 377

2

23.04.2013 18:37


Яндекс.Метрика powered by Sphinx


В Н И М А Н И Е
Сайт не распространяет и не хранит электронные версии произведений, а лишь бесплатно и без коммерческой выгоды (не требуя взамен платы,
SMS и т.д.) предоставляет доступ к создаваемому пользователями каталогу ссылок на торрент-файлы, которые содержат только списки хеш-сумм.
Убедительная просьба с жалобами обращаться напрямую к пользователю, разместившему торрент файл.

Вверх