Loading...
Error

Суд времени. Советский человек. [2010 г., документальный, исторический, TVRip]

Статистика раздачи
Размер:  2,25 GB   |    Зарегистрирован:  3 года 7 месяцев   |    Скачан:  6 раз
Сидов:  1  |  0 KB/s  ]   Личеров:  0  |  0 KB/s  ]

* - сиды/пиры с внешних источников

   
 
Автор Сообщение

матроскин Пол:Муж

24-Апр-2013 18:20

Суд времени. Советский человек.


Год выпуска: 2010
Жанр: документальный, исторический
Страна: Россия
Сюжет фильма:
Трудолюбие, патриотизм и оптимизм – эти качества советская пропаганда заочно приписывала каждому гражданину СССР. Для одних советский человек – это выдумка пропагандистской машины. Другие уверены – системе удалось сформировать новый тип человека.
«Дело» советского человека рассматривают участники слушаний в «Суде времени»
Качество видео: TVRip

Продолжительность: 02:24:27
Формат: avi
Видео: DivX 4, 640x480, 774 kbps
Аудио: русский, оригинал, MP3 2.0, 256 kbps

Код:

General
Complete name                    : C:\Users\Security\Videos\Мамонов\Суд времени - Советский человек..avi
Format                           : AVI
Format/Info                      : Audio Video Interleave
Format profile                   : OpenDML
File size                        : 2.25 GiB
Duration                         : 6h 5mn
Overall bit rate                 : 881 Kbps
Writing application              : Lavf52.93.0

Video
ID                               : 0
Format                           : MPEG-4 Visual
Format profile                   : Simple@L1
Format settings, BVOP            : No
Format settings, QPel            : No
Format settings, GMC             : No warppoints
Format settings, Matrix          : Default (H.263)
Codec ID                         : DIVX
Codec ID/Info                    : Project Mayo
Codec ID/Hint                    : DivX 4
Duration                         : 6h 5mn
Bit rate                         : 775 Kbps
Width                            : 640 pixels
Height                           : 480 pixels
Display aspect ratio             : 4/3
Frame rate                       : 25.000 fps
Resolution                       : 24 bits
Colorimetry                      : 4:2:0
Scan type                        : Progressive
Bits/(Pixel*Frame)               : 0.101
Stream size                      : 1.98 GiB (88%)
Writing library                  : Lavc52.108.0

Audio
ID                               : 1
Format                           : MPEG Audio
Format version                   : Version 1
Format profile                   : Layer 3
Codec ID                         : 55
Codec ID/Hint                    : MP3
Duration                         : 2h 24mn
Bit rate mode                    : Constant
Bit rate                         : 256 Kbps
Channel(s)                       : 2 channels
Sampling rate                    : 44.1 KHz
Resolution                       : 16 bits
Stream size                      : 265 MiB (11%)
Alignment                        : Aligned on interleaves
Interleave, duration             : 26 ms (0.65 video frame)
Writing library                  : LAME3.98.4

picpicpicpicpicpic
Для увеличения картинки щелкните мышкой по превью

Этот торрент недоступен для скачивания без регистрации, однако доступен по публичной magnet-ссылке (источники с публичных трекеров). Перед использованием ссылки прочтите, пожалуйста Пользовательское соглашение, а также как можно дольше оставайтесь на раздаче! Для того, чтобы скачать сам торрент-файл (который видит больше источников), а также для того, чтобы поблагодарить релизера, вам необходимо зарегистрироваться. Если регистрироваться лень - вы можете также попробовать скачать релиз по нашим партнерским ссылкам ниже.

[underverse.su].t26582.torrent
Трекер: Зарегистрирован   [ 24.04.2013 18:20 ]  

Статус: проверено (by Чертёнок at 24.04.2013 19:39)
Поблагодарили: 2 человека
Тип торрента: публичный - доступные источники с открытых трекеров: 
Размер: 2,25 GB (занимает 0,51 DVDR, для записи нужно 1 болванка DVDR/RW)
 
 
Похожие темы
Форум Тема Автор Торрент Отв. Посл. сооб.
Исторические фильмы Суд времени. Беловежское соглашение [2010 г., документальный, исторический, TVRip] матроскин
1 | 0

4 | 617

3

28.04.2013 16:17

* Исторические фильмы Суд времени. Беловежское соглашение [2010 г., документальный, исторический, TVRip] матроскин

0 | 385

27.04.2013 08:50

Исторические фильмы Суд времени. Большевики. [2010, телепередача, TVRip] матроскин
2 | 0

1 | 472

0

27.04.2013 11:02

Исторические фильмы Суд времени. ГКЧП (5 канал Петербуржского ТВ) [2010, телепередача, TVRip] матроскин
1 | 0

1 | 549

3

27.04.2013 11:13

Исторические фильмы Суд времени. 1993 год (5 канал Петербуржского ТВ) [2010, телепередача, TVRip] матроскин
1 | 0

1 | 557

2

27.04.2013 11:24

матроскин Пол:Муж

24-Апр-2013 18:22

Качайте и смотрите документальные телепередачи

Яндекс.Метрика powered by Sphinx


В Н И М А Н И Е
Сайт не распространяет и не хранит электронные версии произведений, а лишь бесплатно и без коммерческой выгоды (не требуя взамен платы,
SMS и т.д.) предоставляет доступ к создаваемому пользователями каталогу ссылок на торрент-файлы, которые содержат только списки хеш-сумм.
Убедительная просьба с жалобами обращаться напрямую к пользователю, разместившему торрент файл.

Вверх