Loading...
Error

Возвращение героя / The Last Stand (Ким Чжи Ун) [2013 г., боевик, триллер, криминал, BDRip] Dub + Original + Sub (Rus) HQ Underverse

Статистика раздачи
Размер:  2,18 GB   |    Зарегистрирован:  3 года 7 месяцев   |    Скачан:  116 раз
Сидов:  1  |  0 KB/s  ]   Личеров:  0  |  0 KB/s  ]

* - сиды/пиры с внешних источников

   
 
Автор Сообщение

HQ Underverse 

24-Апр-2013 13:22

Возвращение героя / The Last Stand


Год выпуска: 2013
Жанр: боевик, триллер, криминал
Страна: США
Режиссер: Ким Чжи Ун
В ролях: Арнольд Шварценеггер, Форест Уитакер, Джонни Ноксвил, Родриго Санторо, Джейми Александр, Луис Гузман, Эдуардо Норьега, Петер Стормаре, Зэк Гилфорд, Генезис Родригез
Сюжет фильма:
Самая опасная и жестокая банда наркоторговцев сбегает из-под конвоя ФБР. Прихватив заложника, они мчатся к мексиканской границе на бронированной, оснащенной первоклассным вооружением машине. У них на пути стоит лишь тихий городок, за порядком в котором следит шериф Оуенс. Когда-то он был одним из лучших полицейских Лос-Анджелеса, теперь он вернулся.

  • Мировая премьера: 12 января 2013
  • Российская премьера: 21 февраля 2013, «UPI», «Премиум Фильм»

/
Качество видео: BDRip

Продолжительность: 01:47:03
Формат: avi
Видео: XviD, 720x304, 2129 kbps
Аудио #1: русский, дублированный [лицензия], AC3 5.1, 384 kbps
Аудио #2: английский, оригинал, AC3 5.1, 384 kbps
Субтитры: внешние, SRT, русский

Код:

General
Complete name                    : G:\Возвращение Героя\The.Last.Stand.2013.BDRip.XviD.AC3.Rus.D.Eng.O.HQ.Underverse.avi
Format                           : AVI
Format/Info                      : Audio Video Interleave
Format profile                   : OpenDML
File size                        : 2.18 GiB
Duration                         : 1h 47mn
Overall bit rate                 : 2 916 Kbps
Writing application              : VirtualDubMod 1.5.10.2 (build 2540/release)
Writing library                  : VirtualDubMod build 2540/release

Video
ID                               : 0
Format                           : MPEG-4 Visual
Format profile                   : Streaming Video@L1
Format settings, BVOP            : Yes
Format settings, QPel            : No
Format settings, GMC             : No warppoints
Format settings, Matrix          : Custom
Muxing mode                      : Packed bitstream
Codec ID                         : XVID
Codec ID/Hint                    : XviD
Duration                         : 1h 47mn
Bit rate                         : 2 130 Kbps
Width                            : 720 pixels
Height                           : 304 pixels
Display aspect ratio             : 2.35
Frame rate                       : 24.000 fps
Resolution                       : 24 bits
Colorimetry                      : 4:2:0
Scan type                        : Progressive
Bits/(Pixel*Frame)               : 0.405
Stream size                      : 1.59 GiB (73%)
Writing library                  : XviD 64

Audio #1
ID                               : 1
Format                           : AC-3
Format/Info                      : Audio Coding 3
Codec ID                         : 2000
Duration                         : 1h 47mn
Bit rate mode                    : Constant
Bit rate                         : 384 Kbps
Channel(s)                       : 6 channels
Channel positions                : Front: L C R, Surround: L R, LFE
Sampling rate                    : 48.0 KHz
Stream size                      : 294 MiB (13%)
Alignment                        : Split accross interleaves
Interleave, duration             : 42 ms (1.00 video frame)
Interleave, preload duration     : 500 ms

Audio #2
ID                               : 2
Format                           : AC-3
Format/Info                      : Audio Coding 3
Codec ID                         : 2000
Duration                         : 1h 47mn
Bit rate mode                    : Constant
Bit rate                         : 384 Kbps
Channel(s)                       : 6 channels
Channel positions                : Front: L C R, Surround: L R, LFE
Sampling rate                    : 48.0 KHz
Stream size                      : 294 MiB (13%)
Alignment                        : Split accross interleaves
Interleave, duration             : 42 ms (1.00 video frame)
Interleave, preload duration     : 500 ms

Релиз группы:

picpicpic
Для увеличения картинки щелкните мышкой по превью

Этот торрент недоступен для скачивания без регистрации, однако доступен по публичной magnet-ссылке (источники с публичных трекеров). Перед использованием ссылки прочтите, пожалуйста Пользовательское соглашение, а также как можно дольше оставайтесь на раздаче! Для того, чтобы скачать сам торрент-файл (который видит больше источников), а также для того, чтобы поблагодарить релизера, вам необходимо зарегистрироваться. Если регистрироваться лень - вы можете также попробовать скачать релиз по нашим партнерским ссылкам ниже.

[underverse.su].t26563.torrent
Трекер: Зарегистрирован   [ 24.04.2013 13:22 ]  

Статус: проверено (by HQ Underverse at 24.04.2013 13:22)
Поблагодарили: 4 человека
Тип торрента: публичный - доступные источники с открытых трекеров: 
Размер: 2,18 GB (занимает 1/2 DVDR, для записи нужно 1 болванка DVDR/RW)
 
 
Похожие темы
Форум Тема Автор Торрент Отв. Посл. сооб.
Зарубежное кино [DVDRip, Low-Res HDRip, и т.д.] Возвращение / Restitution (Lance Kawas) [2011 г., триллер, криминал, HDRip] MVO [лицензия] 90ytr90
1 | 0

0 | 556

20

22.09.2012 10:42

Зарубежное кино [DVDRip, Low-Res HDRip, и т.д.] Возвращение на базу / Взвейся в небо / R2B: Return 2 Base (Донг-вон Ким) [2012 г., боевик, драма, HDTVRip] DVO (den904, DeadSno) 90ytr90
11 | 0

0 | 1016

19

07.12.2012 21:12

Зарубежное кино [DVDRip, Low-Res HDRip, и т.д.] Возвращение живых мертвецов 3 / Return of the Living Dead III (Брайан Юзна) [1993 г., ужасы, фантастика, мелодрама, DVDRip] MVO RG NewCinema
3 | 0

0 | 1279

6

09.12.2012 17:32

Зарубежное кино [DVDRip, Low-Res HDRip, и т.д.] Возвращение в Брайдсхед / Brideshead Revisited (Джулиан Джаррольд) [2008, драма, мелодрама, HDRip] MVO (R5) + DVO + Sub (2 x Rus; Eng) + Original Eng Garnett
10 | 1

0 | 1413

1

17.12.2012 12:19

Зарубежное кино [DVDRip, Low-Res HDRip, и т.д.] Возвращение на базу / Взвейся в небо / R2B: Return 2 Base / Soar Into The Sun (Донг-вон Ким / Dong-won Kim) [2012 г., боевик, драма, BDRip] DVO (den904, DeadSno) + DVO (Green Tea) + Original 90ytr90
0 | 0

0 | 723

14

25.12.2012 05:07

Зарубежное кино [DVDRip, Low-Res HDRip, и т.д.] Возвращение на остров Ним / Return to Nim's Island (Брендан Мехер) [2013 г., семейный, приключения, комедия, DVDRip] DVO RG NewCinema
15 | 0

0 | 7727

20

19.04.2013 13:50

Зарубежное кино [DVDRip, Low-Res HDRip, и т.д.] Возвращение героя / The Last Stand (Ким Чжи Ун) [2013 г., боевик, триллер, криминал, HDRip] Dub [Лицензия] TERRAN
133 | 0

0 | 1511

95

21.04.2013 15:35

Зарубежное кино [DVDRip, Low-Res HDRip, и т.д.] Возвращение героя / The Last Stand (Ким Чжи-ун) [2013 г., боевик, триллер, криминал, HDRip] Dub + Eng 90ytr90
3 | 0

0 | 1170

9

21.04.2013 18:57

Зарубежное кино [DVDRip, Low-Res HDRip, и т.д.] Возвращение героя / The Last Stand (Ким Чжи Ун / Kim Ji Woon) [2013 г., боевик, триллер, криминал, BDRip-AVC] DUB + Original Печаль'ka
22 | 0

1 | 984

31

21.05.2013 07:49

Зарубежное кино [DVDRip, Low-Res HDRip, и т.д.] Возвращение героя / The Last Stand (Ким Чжи Ун / Kim Ji Woon) [2013 г., боевик, триллер, криминал, BDRip-AVC] Dub 90ytr90
16 | 0

0 | 1137

27

22.04.2013 16:00


Яндекс.Метрика powered by Sphinx


В Н И М А Н И Е
Сайт не распространяет и не хранит электронные версии произведений, а лишь бесплатно и без коммерческой выгоды (не требуя взамен платы,
SMS и т.д.) предоставляет доступ к создаваемому пользователями каталогу ссылок на торрент-файлы, которые содержат только списки хеш-сумм.
Убедительная просьба с жалобами обращаться напрямую к пользователю, разместившему торрент файл.

Вверх