Loading...
Error

Неуправляемый / Unstoppable (Тони Скотт) [2010 г., боевик, триллер, BDRip-AVC] Dub + Original + Sub (Rus,Ukr,Eng)

Статистика раздачи
Размер:  2,17 GB   |    Зарегистрирован:  3 года 7 месяцев   |    Скачан:  13 раз

Полного источника не было: 1 месяц 25 дней

Сидов:  0  |  0 KB/s  ]   Личеров:  0  |  0 KB/s  ]

* - сиды/пиры с внешних источников

   
 
Автор Сообщение

RG NewCinema 

23-Апр-2013 11:57


Неуправляемый / Unstoppable (2010) BDRip

Русское название: Неуправляемый
Оригинальное название: Unstoppable
Год выпуска: 2010
Страна: США
Жанр: Боевик, Триллер
Перевод: Дублированный [Лицензия]
Продолжительность: 01:38:30
Субтитры: Вшитые отключаемые
Язык субтитров: Русский, Украинский, Английский
Описание фильма:
Потерявший управление огромный беспилотный локомотив с токсичным грузом несется, сметая все на своем пути. Но главная опасность состоит в том, что если он сойдет с рельсов на очередном вираже, химической катастрофы не избежать. Все силы задействованы, все попытки остановить монстра тщетны, планов на спасение не осталось. Впрочем…

Режиссер: Тони Скотт
Сценарий: Марк Бомбэк
Продюсер: Алекс Янг, Эрик МакЛеод, Мими Роджерс

Актеры: Дензел Вашингтон, Крис Пайн, Розарио Доусон, Этан Сапли, Кевин Данн, Кевин Корригэн, Кевин Чэпмен, Лью Темпл, ТиДжей Миллер, Джесси Шрэм, Дэвид Уоршофски, Энди Умбергер, Элизабет Мэтис, Мэган Тэнди
Дата Мировой премьеры: 26 октября 2010
Дата Российской премьеры: 25 ноября 2010, «Двадцатый Век Фокс СНГ»
Дата выхода DVD релиза: 14 апреля 2011, «Двадцатый Век Фокс СНГ»
Сэмпл
Видеокодек: MPEG-4 AVC/H.264
Формат: MKV
Видео: H.264, 1056x440 (2,40:1), 23,976 fps, 2400 Кbps, 0.215 bit/pixel
Аудио#1: 48 kHz, AC3 Dolby Digital, 3/2 (L,C,R,l,r) + LFE ch, ~384.00 kbps avg | Русский
Аудио#2: 48 kHz, AC3 Dolby Digital, 3/2 (L,C,R,l,r) + LFE ch, ~384.00 kbps avg | Английский
• Первым режиссером фильма был Мартин Кэмпбелл. Однако после двух лет работы над «Неуправляемым» он покинул проект, уступив свое место Тони Скотту.
• По признанию Тони Скотта одна из самых сложных задач – снять фильм так, чтобы внимание зрителя было сосредоточено на главных персонажах, которые большую часть времени находятся внутри кабины 6х9 футов. Чтобы сохранить реалистичность персонажей и общей атмосферы фильма, Скотт отказался от широкого использования компьютерной графики, вместо этого сделав ставку на живое действие.
• В основе фильма лежит реальный случай, когда товарный поезд с опасными химикатами больше двух часов ехал без всякого контроля и управления, пока его не остановили инженеры-путейщики.
• Во время съемок одного из самых напряженных моментов в фильме – когда поезд сходит с рельсов – пришлось более чем на 5 часов перекрыть главную железнодорожную развязку города Эмпориум.
• В процессе съемок было использовано 8 локомотивов и 60 отдельных вагонов. Каждый из вагонов все это время должен был проходить плановые проверки, согласно стандартным правилам эксплуатации. По мере того, как съемочная группа переезжала из города в город, за ней закреплялась своеобразная железная дорога в миниатюре.
• На железнодорожных путях действует строгое ограничение скорости: не больше 15 миль в час. Однако этого было недостаточно, чтобы поезд эффектно выполнил крутой поворот. Тони Скотт не хотел использовать какие-либо компьютерные эффекты и обошелся классическим приемом с дымом и зеркалами, который визуально ускорил движение.
• Действие фильма по времени захватывает всего один день, при этом основные события занимают около двух часов. Однако съемки велись непрерывно практически четыре месяца.
General
Unique ID : 197575293657607641861875062310026808727 (0x94A39E101094368193A9A2D6B26F0D97)
Complete name : C:\Неуправляемый Unstoppable (2010) [H.264.720p-LQ].mkv
Format : Matroska
Format version : Version 2
File size : 2.17 GiB
Duration : 1h 38mn
Overall bit rate : 3 160 Kbps
Movie name : -=POTROKS=-
Encoded date : UTC 2013-01-03 16:20:23
Writing application : mkvmerge v5.7.0 ('The Whirlwind') built on Jul 8 2012 20:08:51
Writing library : libebml v1.2.3 + libmatroska v1.3.0

Video
ID : 1
Format : AVC
Format/Info : Advanced Video Codec
Format profile : [url=mailto:High@L4.1]High@L4.1[/url]
Format settings, CABAC : Yes
Format settings, ReFrames : 9 frames
Codec ID : V_MPEG4/ISO/AVC
Duration : 1h 38mn
Bit rate : 2 400 Kbps
Width : 1 056 pixels
Height : 440 pixels
Display aspect ratio : 2.40:1
Frame rate mode : Constant
Frame rate : 23.976 fps
Color space : YUV
Chroma subsampling : 4:2:0
Bit depth : 8 bits
Scan type : Progressive
Bits/(Pixel*Frame) : 0.215
Stream size : 1.60 GiB (74%)
Title : Неуправляемый
Writing library : x264 core 128 r2216M 198a7ea
Encoding settings : cabac=1 / ref=10 / deblock=1:-2:-1 / analyse=0x3:0x133 / me=umh / subme=11 / psy=1 / psy_rd=1.05:0.00 / mixed_ref=1 / me_range=32 / chroma_me=1 / trellis=2 / 8x8dct=1 / cqm=0 / deadzone=21,11 / fast_pskip=0 / chroma_qp_offset=-2 / threads=4 / lookahead_threads=1 / sliced_threads=0 / nr=0 / decimate=1 / interlaced=0 / bluray_compat=0 / constrained_intra=0 / bframes=11 / b_pyramid=1 / b_adapt=2 / b_bias=0 / direct=3 / weightb=1 / open_gop=0 / weightp=2 / keyint=240 / keyint_min=23 / scenecut=40 / intra_refresh=0 / rc_lookahead=150 / rc=2pass / mbtree=1 / bitrate=2400 / ratetol=1.0 / qcomp=0.70 / qpmin=0 / qpmax=69 / qpstep=4 / cplxblur=20.0 / qblur=0.5 / vbv_maxrate=20000 / vbv_bufsize=25000 / nal_hrd=none / ip_ratio=1.35 / aq=1:0.85
Language : English
Default : Yes
Forced : No

Audio #1
ID : 2
Format : AC-3
Format/Info : Audio Coding 3
Mode extension : CM (complete main)
Format settings, Endianness : Big
Codec ID : A_AC3
Duration : 1h 38mn
Bit rate mode : Constant
Bit rate : 384 Kbps
Channel(s) : 6 channels
Channel positions : Front: L C R, Side: L R, LFE
Sampling rate : 48.0 KHz
Bit depth : 16 bits
Compression mode : Lossy
Delay relative to video : 27ms
Stream size : 271 MiB (12%)
Title : Dub | DD 5.1 @ 384 kbps
Language : Russian
Default : Yes
Forced : Yes

Audio #2
ID : 3
Format : AC-3
Format/Info : Audio Coding 3
Mode extension : CM (complete main)
Format settings, Endianness : Big
Codec ID : A_AC3
Duration : 1h 38mn
Bit rate mode : Constant
Bit rate : 384 Kbps
Channel(s) : 6 channels
Channel positions : Front: L C R, Side: L R, LFE
Sampling rate : 48.0 KHz
Bit depth : 16 bits
Compression mode : Lossy
Delay relative to video : 27ms
Stream size : 271 MiB (12%)
Title : Original | DD 5.1 @ 384 kbps
Language : English
Default : No
Forced : No

Text #1
ID : 4
Format : UTF-8
Codec ID : S_TEXT/UTF8
Codec ID/Info : UTF-8 Plain Text
Title : Forced
Language : Russian
Default : Yes
Forced : Yes

Text #2
ID : 5
Format : UTF-8
Codec ID : S_TEXT/UTF8
Codec ID/Info : UTF-8 Plain Text
Title : Full
Language : Russian
Default : No
Forced : No

Text #3
ID : 6
Format : UTF-8
Codec ID : S_TEXT/UTF8
Codec ID/Info : UTF-8 Plain Text
Title : Forced
Language : Ukrainian
Default : No
Forced : No

Text #4
ID : 7
Format : UTF-8
Codec ID : S_TEXT/UTF8
Codec ID/Info : UTF-8 Plain Text
Title : Full
Language : Ukrainian
Default : No
Forced : No

Text #5
ID : 8
Format : UTF-8
Codec ID : S_TEXT/UTF8
Codec ID/Info : UTF-8 Plain Text
Language : English
Default : No
Forced : No
pic pic pic
Для увеличения картинки щелкните мышкой по превью

Этот торрент недоступен для скачивания без регистрации, однако доступен по публичной magnet-ссылке (источники с публичных трекеров). Перед использованием ссылки прочтите, пожалуйста Пользовательское соглашение, а также как можно дольше оставайтесь на раздаче! Для того, чтобы скачать сам торрент-файл (который видит больше источников), а также для того, чтобы поблагодарить релизера, вам необходимо зарегистрироваться. Если регистрироваться лень - вы можете также попробовать скачать релиз по нашим партнерским ссылкам ниже.

[underverse.su].t26509.torrent
Трекер: Зарегистрирован   [ 23.04.2013 11:57 ]  

Статус: проверено (by Чертёнок at 23.04.2013 12:04)
Поблагодарили: пока никто не поблагодарил...
Тип торрента: публичный - доступные источники с открытых трекеров: 
Размер: 2,17 GB (занимает 1/2 DVDR, для записи нужно 1 болванка DVDR/RW)
 
 
Похожие темы
Форум Тема Автор Торрент Отв. Посл. сооб.
Зарубежное кино [DVDRip, Low-Res HDRip, и т.д.] Неуправляемый / Unstoppable (Тони Скотт) [2010 г., триллер, драма, DVDRip] BartSimpson
0 | 0

0 | 856

5

16.12.2010 05:22

T Зарубежное кино [DVDRip, Low-Res HDRip, и т.д.] Неуправляемый / Rudderless (Уильям Х. Мэйси) [2014 г., драма, комедия, музыка, WEB-DLRip] Dub [iTunes] Паукан
17 | 1

0 | 734

27

06.11.2014 15:51

T Зарубежное кино [DVDRip, Low-Res HDRip, и т.д.] Неуправляемый / Rudderless (Уильям Х. Мэйси) [2014 г., драма, комедия, музыка, HDRip] Dub + Original makkol
7 | 0

0 | 372

9

03.09.2015 11:12

Зарубежное кино [DVD / HDDVD / BD / Remux] Неуправляемый / Unstoppable (Тони Скотт) [2010 г., триллер, драма, боевик, DVD9 {R5}] SKRiptus
0 | 0

0 | 741

4

17.12.2010 09:17

T Зарубежное кино [HDDVDRip / BDRip / WEB-DL / HDTV 1080/720р] Неуправляемый / Rudderless (Уильям Х. Мэйси) [2014 г., драма, комедия, музыка, BDRip 720p] Dub + Original makkol
8 | 0

0 | 527

5

03.09.2015 11:22

Архив Неуправляемый / Unstoppable (Тони Скотт ) [2010 г., Боевик, Триллер, Драма, DVD-5] andrej-ku
0 | 0

2 | 830

1

05.11.2011 14:45


Яндекс.Метрика powered by Sphinx


В Н И М А Н И Е
Сайт не распространяет и не хранит электронные версии произведений, а лишь бесплатно и без коммерческой выгоды (не требуя взамен платы,
SMS и т.д.) предоставляет доступ к создаваемому пользователями каталогу ссылок на торрент-файлы, которые содержат только списки хеш-сумм.
Убедительная просьба с жалобами обращаться напрямую к пользователю, разместившему торрент файл.

Вверх