Loading...
Error

Хародим / Harodim (Пол Финелли) [2012 г., триллер, HDRip] VO [den904] + Original

 
Автор Сообщение

RG NewCinema 

23-Апр-2013 11:33


Хародим / Harodim (2012) HDRip

Русское название: Хародим
Оригинальное название: Harodim
Год выпуска: 2012
Производство: Австрия / Tomcat Productions, Terra Mater Factual Studios, Finger Films
Жанр: Триллер

Описание фильма:
Лазарус Фелл, бывший боец элитного отряда "Морские котики" оставляет всё: службу,карьеру,семью,чтобы отомстить за своего отца, погибшего 11 сентября 2001 года во Всемирном торговом центре. Через несколько лет напряженных поисков он находит и похищает того, кого все считали воплощением мирового Зла и главным организатором и вдохновителем этого теракта. Однако в то, что он рассказал, Лазарус Фелл поначалу отказывается верить...

Режиссер: Пол Финелли
Актеры: Питер Фонда, Джизельда Володи, Альфредо Кастро, Фабрицио Фалько, Аврора Кваттрокки

Продолжительность: 01:35:28
Перевод: Одноголосый закадровый любительский [den904]
Субтитры: Отсутствуют

Сэмпл

Дата мировой премьеры: 8 ноября 2012

Видеокодек: Xvid
Битрейт видео: ~1149 kb/s
Размер кадра: 720x384
Качество видео: HDRip
Аудио 1: АС3, 448 kb/s, Русский, 6.0
Аудио 2: АС3, 448 kb/s, Английский, 6.0
Общее
Полное имя : C:\Торренты\Harodim.2012.HDRip.avi
Формат : AVI
Формат/Информация : Audio Video Interleave
Размер файла : 1,37 Гбайт
Продолжительность : 1 ч. 35 м.
Общий поток : 2060 Кбит/сек
Программа кодирования : VirtualDubMod 1.5.10.2 (build 2540/release)
Библиотека кодирования : VirtualDubMod build 2540/release

Видео
Идентификатор : 0
Формат : MPEG-4 Visual
Профиль формата : Advanced Simple@L5
Параметр BVOP формата : 2
Параметр QPel формата : Нет
Параметр GMC формата : Без точки перехода
Параметр матрицы формата : Default (H.263)
Идентификатор кодека : XVID
Идентификатор кодека/Подсказка : XviD
Продолжительность : 1 ч. 35 м.
Битрейт : 1150 Кбит/сек
Ширина : 720 пикселей
Высота : 384 пикселя
Соотношение сторон : 1,85:1
Частота кадров : 23,976 кадра/сек
Цветовое пространство : YUV
Субдискретизация насыщенности : 4:2:0
Битовая глубина : 8 бит
Тип развёртки : Прогрессивная
Метод сжатия : С потерями
Бит/(Пиксели*Кадры) : 0.174
Размер потока : 786 Мбайт (56%)
Библиотека кодирования : XviD 64

Аудио #1
Идентификатор : 1
Формат : AC-3
Формат/Информация : Audio Coding 3
Расширение режима : CM (complete main)
Параметр Endianness формата : Big
Идентификатор кодека : 2000
Продолжительность : 1 ч. 35 м.
Вид битрейта : Постоянный
Битрейт : 448 Кбит/сек
Каналы : 6 каналов
Расположение каналов : Front: L C R, Side: L R, LFE
Частота : 48,0 КГц
Битовая глубина : 16 бит
Метод сжатия : С потерями
Размер потока : 306 Мбайт (22%)
Выравнивание : Разделение по промежуткам
Продолжительность промежутка : 42 мс. (1,00 видеокадр)
Время предзагрузки промежутка : 500 мс.

Аудио #2
Идентификатор : 2
Формат : AC-3
Формат/Информация : Audio Coding 3
Расширение режима : CM (complete main)
Параметр Endianness формата : Big
Идентификатор кодека : 2000
Продолжительность : 1 ч. 35 м.
Вид битрейта : Постоянный
Битрейт : 448 Кбит/сек
Каналы : 6 каналов
Расположение каналов : Front: L C R, Side: L R, LFE
Частота : 48,0 КГц
Битовая глубина : 16 бит
Метод сжатия : С потерями
Размер потока : 306 Мбайт (22%)
Выравнивание : Разделение по промежуткам
Продолжительность промежутка : 42 мс. (1,00 видеокадр)
Время предзагрузки промежутка : 500 мс.
pic pic pic
Для увеличения картинки щелкните мышкой по превью
[underverse.su].t26508.torrent
Трекер: Не зарегистрирован

Скачать

15 KB

Добавлен: 23.04.2013 11:34
Скачано: 0 раз  [ Список скачавших ]
   
 

Яндекс.Метрика powered by Sphinx


В Н И М А Н И Е
Сайт не распространяет и не хранит электронные версии произведений, а лишь бесплатно и без коммерческой выгоды (не требуя взамен платы,
SMS и т.д.) предоставляет доступ к создаваемому пользователями каталогу ссылок на торрент-файлы, которые содержат только списки хеш-сумм.
Убедительная просьба с жалобами обращаться напрямую к пользователю, разместившему торрент файл.

Вверх