Loading...
Error

Аппалуза / Appaloosa (Эд Харрис) [2008 г., вестерн, драма, криминал, BDRip] MVO + Original

Статистика раздачи
Размер:  1,46 GB   |    Зарегистрирован:  3 года 7 месяцев   |    Скачан:  10 раз

Полного источника не было: 5 месяцев 18 дней

Сидов:  0  |  0 KB/s  ]   Личеров:  0  |  0 KB/s  ]

* - сиды/пиры с внешних источников

   
 
Автор Сообщение

RG NewCinema 

23-Апр-2013 11:09


Аппалуза / Appaloosa (2008) BDRip

«Чувствую, что нужно убить тебя».

Русское название: Аппалуза
Оригинальное название: Appaloosa
Год выпуска: 2008
Жанр: вестерн, драма, криминал

Описание фильма:
История двух друзей, которых нанимают для защиты жителей одного городка, терроризируемых беспощадным хозяином ранчо. Однако их планы рушит очаровательная вдова…

Режиссер: Эд Харрис
Актеры: Вигго Мортенсен, Рене Зеллвегер, Джереми Айронс, Эд Харрис, Лэнс Хенриксен, Рекс Линн, Ариадна Хил, Том Боуэр, Жирар Суон, Роберт Кнотт

Продолжительность: 01:55:25
Перевод: Профессиональный (многоголосый закадровый) R5
Язык субтитров: Русский, Английский
Вид субтитров: Отдельным файлом



Дата мировой премьеры: 5 сентября 2008
Дата выхода DVD релиза: 14 апреля 2009

Видеокодек: Xvid
Битрейт видео: ~1408 kbps
Размер кадра: 720x304
Качество видео: BDRip
Audio #1: 48 kHz, AC3 Dolby Digital, 2/0 (L,R) ch, ~192 kbps / Профессиональный (многоголосый закадровый) R5
Audio #2: 48 kHz, AC3 Dolby Digital, 2/0 (L,R) ch, ~192 kbps / Оригинал (Английский)
Общее
Полное имя : E:\Фильмы М\Appaloosa.2008.BDRip\Appaloosa.2008.BDRip.avi
Формат : AVI
Формат/Информация : Audio Video Interleave
Размер файла : 1,46 Гбайт
Продолжительность : 1 ч. 55 м.
Общий поток : 1806 Кбит/сек
Название фильма : Appaloosa.2008.BDRip
Режиссёр : rip by maygli
Программа кодирования : VirtualDubModRus 1.5.10.2 (build 2542/release)
Правообладатель : ... (RG Rulya74)

Видео
Идентификатор : 0
Формат : MPEG-4 Visual
Профиль формата : Advanced Simple@L5
Параметр BVOP формата : 1
Параметр QPel формата : Нет
Параметр GMC формата : Без точки перехода
Параметр матрицы формата : Выборочная
Режим смешивания : Сжатый битовый поток
Идентификатор кодека : XVID
Идентификатор кодека/Подсказка : XviD
Продолжительность : 1 ч. 55 м.
Битрейт : 1408 Кбит/сек
Ширина : 720 пикселей
Высота : 304 пикселя
Соотношение сторон : 2,35:1
Частота кадров : 23,976 кадра/сек
Цветовое пространство : YUV
Субдискретизация насыщенности : 4:2:0
Битовая глубина : 8 бит
Тип развёртки : Прогрессивная
Метод сжатия : С потерями
Бит/(Пиксели*Кадры) : 0.268
Размер потока : 1,14 Гбайт (78%)
Библиотека кодирования : XviD 65

Аудио #1
Идентификатор : 1
Формат : AC-3
Формат/Информация : Audio Coding 3
Расширение режима : CM (complete main)
Параметр Endianness формата : Big
Идентификатор кодека : 2000
Продолжительность : 1 ч. 55 м.
Вид битрейта : Постоянный
Битрейт : 192 Кбит/сек
Каналы : 2 канала
Расположение каналов : Front: L R
Частота : 48,0 КГц
Битовая глубина : 16 бит
Метод сжатия : С потерями
Размер потока : 159 Мбайт (11%)
Выравнивание : Разделение по промежуткам
Продолжительность промежутка : 42 мс. (1,00 видеокадр)
Время предзагрузки промежутка : 500 мс.
Заголовок : Профессиональный (многоголосый закадровый) R5

Аудио #2
Идентификатор : 2
Формат : AC-3
Формат/Информация : Audio Coding 3
Расширение режима : CM (complete main)
Параметр Endianness формата : Big
Идентификатор кодека : 2000
Продолжительность : 1 ч. 55 м.
Вид битрейта : Постоянный
Битрейт : 192 Кбит/сек
Каналы : 2 канала
Расположение каналов : Front: L R
Частота : 48,0 КГц
Битовая глубина : 16 бит
Метод сжатия : С потерями
Размер потока : 159 Мбайт (11%)
Выравнивание : Разделение по промежуткам
Продолжительность промежутка : 42 мс. (1,00 видеокадр)
Время предзагрузки промежутка : 500 мс.
pic pic pic
Для увеличения картинки щелкните мышкой по превью

Этот торрент недоступен для скачивания без регистрации, однако доступен по публичной magnet-ссылке (источники с публичных трекеров). Перед использованием ссылки прочтите, пожалуйста Пользовательское соглашение, а также как можно дольше оставайтесь на раздаче! Для того, чтобы скачать сам торрент-файл (который видит больше источников), а также для того, чтобы поблагодарить релизера, вам необходимо зарегистрироваться. Если регистрироваться лень - вы можете также попробовать скачать релиз по нашим партнерским ссылкам ниже.

[underverse.su].t26504.torrent
Трекер: Зарегистрирован   [ 23.04.2013 11:09 ]  

Статус: проверено (by Чертёнок at 23.04.2013 11:11)
Поблагодарили: пока никто не поблагодарил...
Тип торрента: публичный - доступные источники с открытых трекеров: 
Размер: 1,46 GB (занимает 1/3 DVDR, для записи нужно 1 болванка DVDR/RW)
 
 
Похожие темы
Форум Тема Автор Торрент Отв. Посл. сооб.
Архив Аппалуза / Appaloosa (Эд Харрис) [2008 г., Боевик, Драма, Криминал, Вестерн, ] denxio
0 | 0

5 | 1951

4

05.11.2011 14:44


Яндекс.Метрика powered by Sphinx


В Н И М А Н И Е
Сайт не распространяет и не хранит электронные версии произведений, а лишь бесплатно и без коммерческой выгоды (не требуя взамен платы,
SMS и т.д.) предоставляет доступ к создаваемому пользователями каталогу ссылок на торрент-файлы, которые содержат только списки хеш-сумм.
Убедительная просьба с жалобами обращаться напрямую к пользователю, разместившему торрент файл.

Вверх