Loading...
Error

Васаби / Wasabi (Жерар Кравчик / Gerard Krawczyk) [2001 г., боевик, приключения, комедия, DVDRip-AVC] Dub

 
Автор Сообщение

RG NewCinema 

23-Апр-2013 10:45


Васаби / Wasabi (2001) DVDRip

Русское название: Васаби
Оригинальное название: Wasabi
Год выпуска: 2001
Страна: Франция
Жанр: Боевик, Приключения, Комедия

Описание фильма:
Полицейский Юбер крут нравом и не дает спуску преступникам на парижских улицах. Лишь одно терзает Юбера и он страдает уже 19 лет - именно столько прошло с тех пор, как его в Токио покинула любимая женщина. Все эти 19 лет Юбер страдает, но не другой подруги жизни не находит. И вдруг неожиданно из Токио приходит известие, что его любимая умерла и Юбер - единственный наследник. По прилету в Токио его ждет несколько шокирующих новостей. Во-первых, у него есть дочка Юми 19 лет от роду, во-вторых, на счетах его бывшей подруги лежат 200 миллионов долларов, а в-третьих, эти деньги очень хочет заполучить...

Режиссер: Жерар Кравчик / Gerard Krawczyk
Актеры: Жан Рено, Мишель Мюллер, Риоко Хиросуе, Кароль Буке, Людовик Бертийот, Мишель Скурно, Ян Эпштейн, Александр Брик, Жан-Марк Монтальто, Вероник Бальм

Продолжительность: 01:29:53
Перевод: Дублированный

IMDB-рейтинг: 6.5/10 (11,296 votes) Ссылка

Видеокодек: MPEG-4 AVC/H.264
Битрейт видео: ~ 1713 Kbps
Размер кадра: 716 x 432, 1018 x 432 (анаморф)
Качество видео: DVDRip
Аудиокодек: AC3 5.1
Битрейт аудио: 448 Kbps
General
Complete name : D:\фильмы\Васаби.mkv
Format : Matroska
File size : 1.38 GiB
Duration : 1h 29mn
Overall bit rate : 2 205 Kbps
Encoded date : UTC 2010-06-16 17:14:56
Writing application : mkvmerge v3.2.0 ('Beginnings') built on Feb 12 2010 16:46:17
Writing library : libebml v0.7.9 + libmatroska v0.8.1
Cover : Yes / Yes

Video
ID : 1
Format : AVC
Format/Info : Advanced Video Codec
Format profile : [url=mailto:High@L3.1]High@L3.1[/url]
Format settings, CABAC : Yes
Format settings, ReFrames : 11 frames
Muxing mode : Container profile=Unknown@3.1
Codec ID : V_MPEG4/ISO/AVC
Duration : 1h 29mn
Bit rate : 1 713 Kbps
Width : 716 pixels
Height : 432 pixels
Display aspect ratio : 2.35:1
Original display aspect ratio : 1.657
Frame rate : 25.000 fps
Resolution : 8 bits
Colorimetry : 4:2:0
Scan type : Progressive
Bits/(Pixel*Frame) : 0.222
Stream size : 1.08 GiB (78%)
Title : AVC; 716x432@1018x432 (2.35:1); 1706 Kbps; 25 fps; 0,221 bpp
Writing library : x264 core 89 r1471kGIT 1144615
Encoding settings : cabac=1 / ref=11 / deblock=1:-2:-1 / analyse=0x3:0x133 / me=umh / subme=10 / psy=1 / psy_rd=1.00:0.10 / mixed_ref=1 / me_range=32 / chroma_me=1 / trellis=2 / 8x8dct=1 / cqm=0 / deadzone=21,11 / fast_pskip=0 / chroma_qp_offset=-3 / threads=3 / sliced_threads=0 / nr=0 / decimate=0 / interlaced=0 / constrained_intra=0 / bframes=6 / b_pyramid=2 / b_adapt=2 / b_bias=0 / direct=3 / wpredb=1 / wpredp=2 / keyint=250 / keyint_min=25 / scenecut=45 / intra_refresh=0 / rc_lookahead=60 / rc=crf / mbtree=1 / crf=17.0 / qcomp=0.70 / qpmin=10 / qpmax=51 / qpstep=4 / ip_ratio=1.30 / aq=2:0.90 / zones=127660,134835,q=35 / pulldown=0
Language : French
Matrix coefficients : BT.470-6 System B, BT.470-6 System G, BT.601-6 625, BT.1358 625, BT.1700 625 PAL, BT.1700 625 SECAM, IEC 61966-2-4 601

Audio
ID : 2
Format : AC-3
Format/Info : Audio Coding 3
Codec ID : A_AC3
Duration : 1h 29mn
Bit rate mode : Constant
Bit rate : 448 Kbps
Channel(s) : 6 channels
Channel positions : Front: L C R, Surround: L R, LFE
Sampling rate : 48.0 KHz
Stream size : 288 MiB (20%)
Title : Дубляж; AC3; 448 Kbps; CBR; 6 ch; 48 kHz
Language : Russian
pic pic pic
Для увеличения картинки щелкните мышкой по превью
[underverse.su].t26502.torrent
Трекер: Не зарегистрирован

Скачать

14 KB

Добавлен: 23.04.2013 10:52
Скачано: 0 раз  [ Список скачавших ]
   
 

Яндекс.Метрика powered by Sphinx


В Н И М А Н И Е
Сайт не распространяет и не хранит электронные версии произведений, а лишь бесплатно и без коммерческой выгоды (не требуя взамен платы,
SMS и т.д.) предоставляет доступ к создаваемому пользователями каталогу ссылок на торрент-файлы, которые содержат только списки хеш-сумм.
Убедительная просьба с жалобами обращаться напрямую к пользователю, разместившему торрент файл.

Вверх