Loading...
Error

Кафе де Флор / Cafe de Flore (Жан-Марк Валли) [2011 г., драма, мелодрама, BDRip-AVC] MVO + Original + Sub(Rus,Eng)

Статистика раздачи
Размер:  2,18 GB   |    Зарегистрирован:  3 года 7 месяцев   |    Скачан:  9 раз

Полного источника не было: 7 месяцев

Сидов:  0  |  0 KB/s  ]   Личеров:  0  |  0 KB/s  ]

* - сиды/пиры с внешних источников

   
 
Автор Сообщение

RG NewCinema 

23-Апр-2013 10:38

Кафе де Флор / Cafe de Flore (2011) BDRip
Русское название: Кафе де Флор
Оригинальное название: Cafe de Flore
Год выпуска: 2011
Жанр: Драма, Мелодрама
Производство: Канада, Франция / Banque Postale Image 4, Canal+ [fr]

Описание фильма:
Tалантливый канадский режиссёр Жан-Марк Валлле возвращается к франкоязычному кино с мощной страстной мистической историей, в которой связаны воедино два несопоставимых сюжета, два времени и две любви... В одной из историй речь идет о матери-одиночке (Ванесса Паради) и её странном сыне в Париже 1969-го года , в другой — об успешном диджее в современном Монреале, который обрел новую любовь, но обрекает на страдания старую..

Режиссер: Жан-Марк Валли
Актеры: Ванесса Паради, Кевин Парент, Хелен Флорент, Эвелин Брошу, Эвелин Де Ла Ченелье, Мишель Дюмон, Линда Смит, Джоанни Корбель-Пичер

Продолжительность: 02:00:45
Перевод: Многоголосый закадровый (лицензия)
Язык субтитров: Русский, английский
Вид субтитров: Вшитые (отключаемые)

Семпл

Дата мировой премьеры: 2 сентября 2011
Дата российской премьеры: 3 мая 2012, «Кино без границ»
Дата выхода DVD релиза: 20 августа 2012, «Новый Диск»

Качество видео: BDRip-AVC
Видео: MPEG-4 AVC/H.264, 1056x440 (2,40:1), 23,976 fps, 2009 Кbps, 0.180 bit/pixel
Аудио#1: 48 kHz, AC3 Dolby Digital, 2/0 (L,R) ch, ~192 kbps avg | Русский
Аудио#2: 48 kHz, AC3 Dolby Digital, 3/2 (L,C,R,l,r) + LFE ch, ~384.00 kbps avg | Французкий
General
Unique ID : 185796916319983866802971646275093703506 (0x8BC72F3986FBE1208CDB318071D2AB52)
Complete name : Kafe.de.Flоr.2011.P.BDRip.x264.potroks.mkv
Format : Matroska
Format version : Version 2
File size : 2.18 GiB
Duration : 2h 0mn
Overall bit rate : 2 585 Kbps
Movie name : -=POTROKS=-
Encoded date : UTC 2012-08-28 16:30:42
Writing application : mkvmerge v5.7.0 ('The Whirlwind') built on Jul 8 2012 20:08:51
Writing library : libebml v1.2.3 + libmatroska v1.3.0
Video
ID : 1
Format : AVC
Format/Info : Advanced Video Codec
Format profile : [url=mailto:High@L4.1]High@L4.1[/url]
Format settings, CABAC : Yes
Format settings, ReFrames : 9 frames
Codec ID : V_MPEG4/ISO/AVC
Duration : 2h 0mn
Bit rate : 2 009 Kbps
Width : 1 056 pixels
Height : 440 pixels
Display aspect ratio : 2.40:1
Frame rate mode : Constant
Frame rate : 23.976 fps
Color space : YUV
Chroma subsampling : 4:2:0
Bit depth : 8 bits
Scan type : Progressive
Bits/(Pixel*Frame) : 0.180
Stream size : 1.65 GiB (76%)
Title : Kafe.de.Flоr.2011.P.BDRip.x264.potroks
Writing library : x264 core 116 r2019M 9cc407d
Encoding settings : cabac=1 / ref=10 / deblock=1:-2:-2 / analyse=0x3:0x133 / me=umh / subme=10 / psy=1 / psy_rd=1.00:0.00 / mixed_ref=1 / me_range=32 / chroma_me=1 / trellis=2 / 8x8dct=1 / cqm=0 / deadzone=21,11 / fast_pskip=0 / chroma_qp_offset=-2 / threads=8 / sliced_threads=0 / nr=0 / decimate=1 / interlaced=0 / bluray_compat=0 / constrained_intra=0 / bframes=11 / b_pyramid=1 / b_adapt=2 / b_bias=0 / direct=3 / weightb=1 / open_gop=0 / weightp=2 / keyint=240 / keyint_min=23 / scenecut=40 / intra_refresh=0 / rc_lookahead=100 / rc=2pass / mbtree=1 / bitrate=2009 / ratetol=1.0 / qcomp=0.70 / qpmin=10 / qpmax=51 / qpstep=4 / cplxblur=20.0 / qblur=0.5 / vbv_maxrate=20000 / vbv_bufsize=20000 / nal_hrd=none / ip_ratio=1.35 / aq=1:1.00
Language : French
Default : Yes
Forced : No
Audio #1
ID : 2
Format : AC-3
Format/Info : Audio Coding 3
Mode extension : CM (complete main)
Format settings, Endianness : Big
Codec ID : A_AC3
Duration : 2h 0mn
Bit rate mode : Constant
Bit rate : 192 Kbps
Channel(s) : 2 channels
Channel positions : Front: L R
Sampling rate : 48.0 KHz
Bit depth : 16 bits
Compression mode : Lossy
Stream size : 166 MiB (7%)
Title : MVO
Language : Russian
Default : Yes
Forced : Yes
Audio #2
ID : 3
Format : AC-3
Format/Info : Audio Coding 3
Mode extension : CM (complete main)
Format settings, Endianness : Big
Codec ID : A_AC3
Duration : 2h 0mn
Bit rate mode : Constant
Bit rate : 384 Kbps
Channel(s) : 6 channels
Channel positions : Front: L C R, Side: L R, LFE
Sampling rate : 48.0 KHz
Bit depth : 16 bits
Compression mode : Lossy
Stream size : 332 MiB (15%)
Language : French
Default : No
Forced : No
Text #1
ID : 4
Format : UTF-8
Codec ID : S_TEXT/UTF8
Codec ID/Info : UTF-8 Plain Text
Language : Russian
Default : No
Forced : No
Text #2
ID : 5
Format : UTF-8
Codec ID : S_TEXT/UTF8
Codec ID/Info : UTF-8 Plain Text
Language : English
Default : No
Forced : No
pic pic pic
Для увеличения картинки щелкните мышкой по превью

Этот торрент недоступен для скачивания без регистрации, однако доступен по публичной magnet-ссылке (источники с публичных трекеров). Перед использованием ссылки прочтите, пожалуйста Пользовательское соглашение, а также как можно дольше оставайтесь на раздаче! Для того, чтобы скачать сам торрент-файл (который видит больше источников), а также для того, чтобы поблагодарить релизера, вам необходимо зарегистрироваться. Если регистрироваться лень - вы можете также попробовать скачать релиз по нашим партнерским ссылкам ниже.

[underverse.su].t26501.torrent
Трекер: Зарегистрирован   [ 23.04.2013 10:38 ]  

Статус: проверено (by Чертёнок at 23.04.2013 11:02)
Поблагодарили: 1 человек
Тип торрента: публичный - доступные источники с открытых трекеров: 
Размер: 2,18 GB (занимает 1/2 DVDR, для записи нужно 1 болванка DVDR/RW)
 
 
Похожие темы
Форум Тема Автор Торрент Отв. Посл. сооб.
Зарубежное кино [DVDRip, Low-Res HDRip, и т.д.] Кафе де Флор / Cafe de Flore (Жан-Марк Валли) [2011 г., драма, мелодрама, HDRip] RG NewCinema
1 | 0

0 | 404

17

27.06.2012 04:34


Яндекс.Метрика powered by Sphinx


В Н И М А Н И Е
Сайт не распространяет и не хранит электронные версии произведений, а лишь бесплатно и без коммерческой выгоды (не требуя взамен платы,
SMS и т.д.) предоставляет доступ к создаваемому пользователями каталогу ссылок на торрент-файлы, которые содержат только списки хеш-сумм.
Убедительная просьба с жалобами обращаться напрямую к пользователю, разместившему торрент файл.

Вверх