Loading...
Error

Шоссе 666 / Route 666 (Уильям Уэсли) [2001 г., боевик, ужасы, триллер, DVDRip] MVO

Статистика раздачи
Размер:  1,37 GB   |    Зарегистрирован:  3 года 7 месяцев   |    Скачан:  1 раз

Полного источника не было: 11 месяцев

Сидов:  0  |  0 KB/s  ]   Личеров:  0  |  0 KB/s  ]

* - сиды/пиры с внешних источников

   
 
Автор Сообщение

RG NewCinema 

23-Апр-2013 09:54


Шоссе 666 / Route 666 (2001) DVDRip

Русское название: Шоссе 666
Оригинальное название: Route 666
Страна: США
Год выпуска: 2001
Жанр: Боевик, Ужасы, Триллер

Описание фильма:
Заброшенный участок старого шоссе пользуется у местных жителей дурной славой: много лет назад здесь была жестоко убита группа заключенных, работавших на строительстве дороги.

Теперь два агента ФБР преследуют здесь беглеца, скрывающегося и от них, и от мафии. Но на пути у всех участников погони встают поднявшиеся из могил мертвецы, жаждущие отомстить за свое убийство.

Режиссер: Уильям Уэсли
Актеры: Лу Даймонд Филлипс, Лори Петти, Стивен Уильямс, Л. К. Джонс, Дэйл Мидкифф, Алекс МакАртур, Мерседес Колон, Роб Рой, Фицджералд, Адам Вернье

Продолжительность: 01:26:24
Перевод: Многоголосый закадровый



Дата мировой премьеры: 30 октября 2001
Дата выхода DVD релиза: 5 февраля 2009, «Мьюзик-Трейд»

Видеокодек: Xvid
Битрейт видео: ~1804 Кбит/сек
Размер кадра: 720х304
Качество видео: DVDRip
Аудиокодек: AC3 5.1
Битрейт аудио: 448 Кбит/сек
Сэмпл: Ссылка
Формат : AVI
Формат/Информация : Audio Video Interleave
Размер файла : 1,37 Гбайт
Продолжительность : 1 ч. 26 м.
Общий поток : 2262 Кбит/сек
Название фильма : Route 666 (2001)
Режиссёр : encoded by WIDOK
Программа кодирования : VirtualDubMod 1.5.10.2 (build 2542/release)
Правообладатель : 11-2008

Видео
Идентификатор : 0
Формат : MPEG-4 Visual
Профиль формата : Advanced Simple@L5
Параметр BVOP формата : 1
Параметр QPel формата : Нет
Параметр GMC формата : Без точки перехода
Параметр матрицы формата : Default (MPEG)
Идентификатор кодека : XVID
Идентификатор кодека/Подсказка : XviD
Продолжительность : 1 ч. 26 м.
Битрейт : 1804 Кбит/сек
Ширина : 720 пикселей
Высота : 304 пикселя
Соотношение сторон : 2,35:1
Частота кадров : 25,000 кадров/сек
Цветовое пространство : YUV
Субдискретизация насыщенности : 4:2:0
Битовая глубина : 8 бит
Тип развёртки : Прогрессивная
Метод сжатия : С потерями
Бит/(Пиксели*Кадры) : 0.330
Размер потока : 1,09 Гбайт (80%)
Библиотека кодирования : XviD 1.2.0SMP (UTC 2006-01-08)

Аудио
Идентификатор : 1
Формат : AC-3
Формат/Информация : Audio Coding 3
Расширение режима : CM (complete main)
Идентификатор кодека : 2000
Продолжительность : 1 ч. 26 м.
Вид битрейта : Постоянный
Битрейт : 448 Кбит/сек
Каналы : 6 каналов
Расположение каналов : Front: L C R, Side: L R, LFE
Частота : 48,0 КГц
Битовая глубина : 16 бит
Метод сжатия : С потерями
Размер потока : 277 Мбайт (20%)
Выравнивание : Разделение по промежуткам
Продолжительность промежутка : 40 мс. (1,00 видеокадр)
Время предзагрузки промежутка : 500 мс.
pic pic pic
Для увеличения картинки щелкните мышкой по превью

Этот торрент недоступен для скачивания без регистрации, однако доступен по публичной magnet-ссылке (источники с публичных трекеров). Перед использованием ссылки прочтите, пожалуйста Пользовательское соглашение, а также как можно дольше оставайтесь на раздаче! Для того, чтобы скачать сам торрент-файл (который видит больше источников), а также для того, чтобы поблагодарить релизера, вам необходимо зарегистрироваться. Если регистрироваться лень - вы можете также попробовать скачать релиз по нашим партнерским ссылкам ниже.

[underverse.su].t26497.torrent
Трекер: Зарегистрирован   [ 23.04.2013 09:55 ]  

Статус: проверено (by Bratok at 23.04.2013 10:17)
Поблагодарили: пока никто не поблагодарил...
Тип торрента: публичный - доступные источники с открытых трекеров: 
Размер: 1,37 GB (занимает 0,31 DVDR, для записи нужно 1 болванка DVDR/RW)
 
 

Яндекс.Метрика powered by Sphinx


В Н И М А Н И Е
Сайт не распространяет и не хранит электронные версии произведений, а лишь бесплатно и без коммерческой выгоды (не требуя взамен платы,
SMS и т.д.) предоставляет доступ к создаваемому пользователями каталогу ссылок на торрент-файлы, которые содержат только списки хеш-сумм.
Убедительная просьба с жалобами обращаться напрямую к пользователю, разместившему торрент файл.

Вверх