Loading...
Error

Джек Ричер / Jack Reacher (Кристофер МакКуорри) [2012 г., боевик, триллер, криминал, детектив, BDRip] Dub + Original + Sub (Eng) HQ Underverse

Статистика раздачи
Размер:  2,17 GB   |    Зарегистрирован:  3 года 7 месяцев   |    Скачан:  106 раз

Полного источника не было: 4 месяца 3 дня

Сидов:  0  |  0 KB/s  ]   Личеров:  0  |  0 KB/s  ]

* - сиды/пиры с внешних источников

   
 
Автор Сообщение

HQ Underverse 

23-Апр-2013 06:57

Джек Ричер / Jack Reacher


Год выпуска: 2012
Жанр: боевик, триллер, криминал, детектив
Страна: США
Режиссер: Кристофер МакКуорри
В ролях: Том Круз, Розамунд Пайк, Ричард Дженкинс, Вернер Херцог, Дэвид Ойелоуо, Роберт Дювалл, Джай Кортни, Владимир Сизов, Джозеф Сикора, Майкл Рэймонд-Джеймс
Сюжет фильма:
Снайпер убивает пять случайных прохожих, но все улики указывают на человека, заключенного под стражу. На допросе подозреваемый умоляет об одном — найти Джека Ричера.

  • Мировая премьера: 20 декабря 2012
  • Российская премьера: 10 января 2013, «Централ Партнершип»

/
Качество видео: BDRip

Продолжительность: 02:10:24
Формат: avi
Видео: XviD, 720x304, 1984 kbps
Аудио #1: русский, дублированный [лицензия], AC3 5.1, 384 kbps
Аудио #2: английский, оригинал, AC3 5.1, 384 kbps (отдельным файлом: здесь)
Субтитры #1: внешние, SRT, английский
Субтитры #2: внешние, SRT, английский (SDH)

Код:

General
Complete name                    : G:\Джек Ричер\Jack.Reacher.2012.BDRip.XviD.AC3.Rus.D.HQ.Underverse.avi
Format                           : AVI
Format/Info                      : Audio Video Interleave
Format profile                   : OpenDML
File size                        : 2.17 GiB
Duration                         : 2h 10mn
Overall bit rate                 : 2 380 Kbps
Writing application              : VirtualDubMod 1.5.10.2 (build 2540/release)
Writing library                  : VirtualDubMod build 2540/release

Video
ID                               : 0
Format                           : MPEG-4 Visual
Format profile                   : Streaming Video@L1
Format settings, BVOP            : Yes
Format settings, QPel            : No
Format settings, GMC             : No warppoints
Format settings, Matrix          : Custom
Muxing mode                      : Packed bitstream
Codec ID                         : XVID
Codec ID/Hint                    : XviD
Duration                         : 2h 10mn
Bit rate                         : 1 984 Kbps
Width                            : 720 pixels
Height                           : 304 pixels
Display aspect ratio             : 2.35
Frame rate                       : 23.976 fps
Resolution                       : 24 bits
Colorimetry                      : 4:2:0
Scan type                        : Progressive
Bits/(Pixel*Frame)               : 0.378
Stream size                      : 1.81 GiB (83%)
Writing library                  : XviD 64

Audio
ID                               : 1
Format                           : AC-3
Format/Info                      : Audio Coding 3
Codec ID                         : 2000
Duration                         : 2h 10mn
Bit rate mode                    : Constant
Bit rate                         : 384 Kbps
Channel(s)                       : 6 channels
Channel positions                : Front: L C R, Surround: L R, LFE
Sampling rate                    : 48.0 KHz
Stream size                      : 358 MiB (16%)
Alignment                        : Split accross interleaves
Interleave, duration             : 42 ms (1.00 video frame)
Interleave, preload duration     : 500 ms

General
Complete name                    : G:\Джек Ричер\Jack.Reacher.2012.BDRip.XviD.AC3.Rus.D.HQ.Underverse.ENG.ac3
Format                           : AC-3
Format/Info                      : Audio Coding 3
File size                        : 358 MiB
Duration                         : 2h 10mn
Overall bit rate                 : 384 Kbps

Audio
Format                           : AC-3
Format/Info                      : Audio Coding 3
Duration                         : 2h 10mn
Bit rate mode                    : Constant
Bit rate                         : 384 Kbps
Channel(s)                       : 6 channels
Channel positions                : Front: L C R, Surround: L R, LFE
Sampling rate                    : 48.0 KHz
Stream size                      : 358 MiB (100%)

Релиз группы:

picpicpic
Для увеличения картинки щелкните мышкой по превью

Этот торрент недоступен для скачивания без регистрации, однако доступен по публичной magnet-ссылке (источники с публичных трекеров). Перед использованием ссылки прочтите, пожалуйста Пользовательское соглашение, а также как можно дольше оставайтесь на раздаче! Для того, чтобы скачать сам торрент-файл (который видит больше источников), а также для того, чтобы поблагодарить релизера, вам необходимо зарегистрироваться. Если регистрироваться лень - вы можете также попробовать скачать релиз по нашим партнерским ссылкам ниже.

[underverse.su].t26493.torrent
Трекер: Зарегистрирован   [ 23.04.2013 06:57 ]  

Статус: проверено (by HQ Underverse at 23.04.2013 06:58)
Поблагодарили: 4 человека
Тип торрента: публичный - доступные источники с открытых трекеров: 
Размер: 2,17 GB (занимает 1/2 DVDR, для записи нужно 1 болванка DVDR/RW)
 
 
Похожие темы
Форум Тема Автор Торрент Отв. Посл. сооб.
Зарубежное кино [DVDRip, Low-Res HDRip, и т.д.] Джек Ричер / Jack Reacher (Кристофер МакКуорри) [2012 г., боевик, триллер, криминал, BDRip-AVC] Dub Чертёнок
2 | 3

0 | 668

24

20.04.2013 15:10

Зарубежное кино [DVDRip, Low-Res HDRip, и т.д.] Джек Ричер / Jack Reacher (Кристофер МакКуорри / Christopher McQuarrie) [2012 г., боевик, триллер, криминал, детектив, BDRip] Dub [лицензия] 90ytr90
68 | 4

2 | 1009

91

02.06.2013 06:23

Зарубежное кино [DVDRip, Low-Res HDRip, и т.д.] Джек Ричер / Jack Reacher (Кристофер МакКуорри) [2012 г., боевик, триллер, криминал, HDRip] Dub [лицензия] 90ytr90
75 | 0

0 | 1234

108

20.04.2013 08:55

Зарубежное кино [DVDRip, Low-Res HDRip, и т.д.] Джек Ричер / Jack Reacher (Кристофер МакКуорри / Christopher McQuarrie) [2012 г., боевик, триллер, криминал, детектив, HDRip-AVC] Dub Gaarochi
0 | 0

0 | 668

8

20.04.2013 07:01

Зарубежное кино [DVD / HDDVD / BD / Remux] Джек Ричер / Jack Reacher (Кристофер МакКуорри) [2012 г., боевик, триллер, криминал, Blu-Ray Remux ] DUB + Original + Sub (Eng) Печаль'ka
3 | 0

0 | 626

8

20.04.2013 21:21

Зарубежное кино [HDDVDRip / BDRip / WEB-DL / HDTV 1080/720р] Джек Ричер / Jack Reacher (Кристофер МакКуорри / Christopher McQuarrie) [2012 г., боевик, триллер, криминал, детектив, BDRip 720p] Dub + Eng 90ytr90
5 | 0

0 | 918

24

20.04.2013 06:43

Зарубежное кино [HDDVDRip / BDRip / WEB-DL / HDTV 1080/720р] Джек Ричер / Jack Reacher (Кристофер МакКуорри) [2012 г., боевик, триллер, криминал, детектив, BDRip 1080p] DUB + Orignial + SUB (Eng, Rus) Печаль'ka
26 | 2

0 | 536

36

22.04.2013 06:57

T Новинки кино [CAMRip, TS, DVDScr, WP, TC] Джек Ричер 2: Никогда не возвращайся / Jack Reacher: Never Go Back (Эдвард Цвик) [2016 г., боевик, триллер, криминал, CAMRip] Dub makkol
1664 | 68

0 | 688

74

20.10.2016 21:45

T Новинки кино [CAMRip, TS, DVDScr, WP, TC] Джек Ричер 2: Никогда не возвращайся / Jack Reacher: Never Go Back (Эдвард Цвик) [2016 г., боевик, триллер, криминал, TS] Dub makkol
501 | 10

0 | 798

99

25.10.2016 12:59

Shyryp Пол:Муж

30-Апр-2013 12:55

Спасибо за релиз! :good: На рутреккере закрыли :)

Яндекс.Метрика powered by Sphinx


В Н И М А Н И Е
Сайт не распространяет и не хранит электронные версии произведений, а лишь бесплатно и без коммерческой выгоды (не требуя взамен платы,
SMS и т.д.) предоставляет доступ к создаваемому пользователями каталогу ссылок на торрент-файлы, которые содержат только списки хеш-сумм.
Убедительная просьба с жалобами обращаться напрямую к пользователю, разместившему торрент файл.

Вверх