Loading...
Error

Истребители / Серии: 1-12 (12) (Алексей Мурадов) [2013, Военный, драма , SATRip]

Статистика раздачи
Размер:  6 GB   |    Зарегистрирован:  3 года 7 месяцев   |    Скачан:  51 раз

Полного источника не было: 6 месяцев

Сидов:  0  |  0 KB/s  ]   Личеров:  0  |  0 KB/s  ]

* - сиды/пиры с внешних источников

   
 
Автор Сообщение

nemos Пол:Муж

22-Апр-2013 14:38

Истребители


Год выпуска: 2013
Жанр: драма, военный
Страна: Россия
Режиссер: Алексей Мурадов
В ролях: Екатерина Вилкова, Дмитрий Дюжев, Николай Козак, Елена Яковлева, Олег Фомин, Мария Андреева, Антон Соколов, Дмитрий Арбенин, Екатерина Рябова, Владимир Большов
Сюжет фильма:
В летной школе Командир сводного авиаполка, прибывший для набора новичков на фронт, сообщает Леониду и Борису, что они зачислены в его полк. Борис нетерпеливо спрашивает, они отправляются на фронт немедленно? Командир отвечает, сначала они отправятся на завод, за новыми самолетами, а уж на них и на фронт полетят.

Комполка, Леонид и Борис получают самолеты на заводе и видят ужасающую картину — на станках работают измотанные женщины и дети, которые стоят на ящиках, чтобы доставать до станков. Другие группы женщин и детей, спят вповалку на полу тут же в цеху. На вопрос Бориса: а это кто такие? Директор завода отвечает: это — вторая смена. Борис и Леонид понимают, на каком пределе возможностей на них работает страна, чтобы они могли летать и бить врага.


Качество видео: SatRip

Продолжительность: 00:42:39 серия
Формат: AVI
Видео: DivX, 704х400, 1601kbps
Аудио: русский, MP3 2.0, 128 kbps

Код:

F:\С underverse-3 Фильмы\Истребители\Истребители_01.avi
   General
      Complete name : F:\С underverse-3 Фильмы\Истребители\Истребители_01.avi
      Format : AVI
      Format/Info : Audio Video Interleave
      File size : 530 MiB
      Duration : 42mn 39s
      Overall bit rate : 1 739 Kbps
      Writing library : VirtualDub-MPEG2 build 24600/release
   Video #0
      ID : 0
      Format : MPEG-4 Visual
      Format settings, BVOP : Yes
      Format settings, QPel : No
      Format settings, GMC : No warppoints
      Format settings, Matrix : Default (H.263)
      Codec ID : DX50
      Codec ID/Hint : DivX 5
      Duration : 42mn 39s
      Bit rate : 1 601 Kbps
      Width : 704 pixels
      Height : 400 pixels
      Display aspect ratio : 16:9
      Frame rate : 25.000 fps
      Color space : YUV
      Chroma subsampling : 4:2:0
      Bit depth : 8 bits
      Scan type : Progressive
      Compression mode : Lossy
      Bits/(Pixel*Frame) : 0.227
      Stream size : 488 MiB (92%)
      Writing library : Intel(R) MPEG-4 encoder based on Intel(R) IPP 6.1 build 137.20[6.1.137.763]
   Audio #1
      ID : 1
      Format : MPEG Audio
      Format version : Version 1
      Format profile : Layer 3
      Mode : Joint stereo
      Mode extension : MS Stereo
      Codec ID : 55
      Codec ID/Hint : MP3
      Duration : 42mn 39s
      Bit rate mode : Constant
      Bit rate : 128 Kbps
      Channel(s) : 2 channels
      Sampling rate : 48.0 KHz
      Compression mode : Lossy
      Stream size : 39.1 MiB (7%)
      Alignment : Split accross interleaves
      Interleave, duration : 40 ms (1.00 video frame)
      Interleave, preload duration : 500 ms
      Writing library : LAME3.98.2
Семпл: http://multi-up.com/857544

Релиз группы:

picpicpicpicpicpicpicpicpicpicpicpicpicpic
Для увеличения картинки щелкните мышкой по превью
Сериал который был выложен и зарегистрирован более двух месяцев назад буду раздавать с 23.00ч до 06.00ч утра ( вина в этом не моя, а пользователей которые не поддерживают раздачу)

Этот торрент недоступен для скачивания без регистрации, однако доступен по публичной magnet-ссылке (источники с публичных трекеров). Перед использованием ссылки прочтите, пожалуйста Пользовательское соглашение, а также как можно дольше оставайтесь на раздаче! Для того, чтобы скачать сам торрент-файл (который видит больше источников), а также для того, чтобы поблагодарить релизера, вам необходимо зарегистрироваться. Если регистрироваться лень - вы можете также попробовать скачать релиз по нашим партнерским ссылкам ниже.

[underverse.su].t26605.torrent
Трекер: Зарегистрирован   [ 25.04.2013 14:08 ]  

Статус: проверено (by Чертёнок at 25.04.2013 15:24)
Поблагодарили: 14 человек
Тип торрента: публичный - доступные источники с открытых трекеров: 
Размер: 6 GB (занимает 1,37 DVDR, для записи нужно 2 болванки DVDR/RW)
 
 
Похожие темы
Форум Тема Автор Торрент Отв. Посл. сооб.
Зарубежное кино [DVDRip, Low-Res HDRip, и т.д.] Истребители духов / Ghost Sweepers (Шин Чон Вон) [2012 г., мистика, комедия, HDRip] DVO (den904, DeadSno) 90ytr90
0 | 0

0 | 1441

16

01.01.2013 08:48

Зарубежное кино [DVDRip, Low-Res HDRip, и т.д.] Истребитель зомби / Хуан - истребитель кубинских зомби / Juan de los Muertos (Алехандро Бругес) [2011 г., ужасы, комедия, HDRip] Dub (чистый звук) 90ytr90
3 | 0

0 | 1081

9

24.04.2013 17:02

xUSSR сериалы Истребители (Штурмовики) (12 из 12 серий) 2013 (Алексей Мурадов) [2013 г., Военный фильм, драма, ВОВ, WEB-DLRip] vasilich619
0 | 0

0 | 1530

20

07.09.2013 23:16

xUSSR сериалы Истребители (2 сезон /cерии 1-12 из 12) (Зиновий Ройзман) [2015 г., военный, драма, WEB-DLRip] nemos
12 | 0

1 | 1056

24

05.05.2015 22:08

Научно-популярные фильмы Истребитель пятого поколения [2013г., Документальный, DVBRip-AVC] Печаль'ka
0 | 0

1 | 740

18

24.09.2013 14:13

xUSSR сериалы [BD / Remux / BDRip / WEB-DL / HDTV 1080/720р] Истребители / Серии 1-12 (12) (Алексей Мурадов) [2013 г., драма, военный, WEBDLRip 720p] Чертёнок
0 | 0

0 | 1219

50

25.04.2013 19:14

xUSSR сериалы [BD / Remux / BDRip / WEB-DL / HDTV 1080/720р] Истребители (2 сезон /cерии 1-12 из 12) (Зиновий Ройзман) [2015 г., военный, драма, WEB-DL 1080p] nemos
7 | 0

2 | 1123

17

31.10.2015 10:30



Последний раз редактировалось: nemos (06.11.2014 11:27), всего редактировалось 7 раз(а)

nemos Пол:Муж

22-Апр-2013 17:04

Торрент обновлен(4)

SergM Пол:Муж

22-Апр-2013 17:28

Истребители (1-4 серии из 12) / 2013 / РУ / SATRip
Почему не пишите, что только 4 серии из 12
в Кинозале это четко указано.
http://*другой трекер*/details.php?id=1082695
Качать пока не буду. 8)

nemos Пол:Муж

25-Апр-2013 14:08

Торрент обновлен(12)

Яндекс.Метрика powered by Sphinx


В Н И М А Н И Е
Сайт не распространяет и не хранит электронные версии произведений, а лишь бесплатно и без коммерческой выгоды (не требуя взамен платы,
SMS и т.д.) предоставляет доступ к создаваемому пользователями каталогу ссылок на торрент-файлы, которые содержат только списки хеш-сумм.
Убедительная просьба с жалобами обращаться напрямую к пользователю, разместившему торрент файл.

Вверх