Loading...
Error

Беларусь: механизмы успеха [2013 г., документальный, TVRip]

Статистика раздачи
Размер:  672 MB   |    Зарегистрирован:  3 года 7 месяцев   |    Скачан:  14 раз

Полного источника не было: 14 часов

Сидов:  0  |  0 KB/s  ]   Личеров:  0  |  0 KB/s  ]

* - сиды/пиры с внешних источников

   
 
Автор Сообщение

матроскин Пол:Муж

21-Апр-2013 13:25

Беларусь: механизмы успеха


Год выпуска: 2013
Жанр: документальный
Страна: Россия
Сюжет фильма:
Беларуссия не развалила свою промышленность как это сделала Россия, а наоборот все сохранила, что досталось ей от Советского Союза. Производство развивается, все население Беларуссии работает, бомжей и безработных в республике Беларусь нет. Беларусское правительство старается все сделать для своего народа, чтобы ему жилось хорошо.
Качество видео: TVRip

Продолжительность: 00:24:54
Формат: avi
Видео: DivX 4, 874x480, 3503 kbps
Аудио: русский, оригинал, MP3 2.0, 256 kbps

Код:

General
Complete name                    : C:\Users\Security\Videos\Мамонов\Беларусь менизмы успеха.avi
Format                           : AVI
Format/Info                      : Audio Video Interleave
File size                        : 672 MiB
Duration                         : 24mn 54s
Overall bit rate                 : 3 772 Kbps
Writing application              : Lavf52.93.0

Video
ID                               : 0
Format                           : MPEG-4 Visual
Format profile                   : Simple@L1
Format settings, BVOP            : No
Format settings, QPel            : No
Format settings, GMC             : No warppoints
Format settings, Matrix          : Default (H.263)
Codec ID                         : DIVX
Codec ID/Info                    : Project Mayo
Codec ID/Hint                    : DivX 4
Duration                         : 24mn 54s
Bit rate                         : 3 504 Kbps
Width                            : 854 pixels
Height                           : 480 pixels
Display aspect ratio             : 16/9
Frame rate                       : 25.000 fps
Resolution                       : 24 bits
Colorimetry                      : 4:2:0
Scan type                        : Progressive
Bits/(Pixel*Frame)               : 0.342
Stream size                      : 624 MiB (93%)
Writing library                  : Lavc52.108.0

Audio
ID                               : 1
Format                           : MPEG Audio
Format version                   : Version 1
Format profile                   : Layer 3
Codec ID                         : 55
Codec ID/Hint                    : MP3
Duration                         : 24mn 54s
Bit rate mode                    : Constant
Bit rate                         : 256 Kbps
Channel(s)                       : 2 channels
Sampling rate                    : 44.1 KHz
Resolution                       : 16 bits
Stream size                      : 45.6 MiB (7%)
Alignment                        : Aligned on interleaves
Interleave, duration             : 26 ms (0.65 video frame)
Interleave, preload duration     : 52 ms
Writing library                  : LAME3.98.4

picpicpicpicpicpic
Для увеличения картинки щелкните мышкой по превью

Этот торрент недоступен для скачивания без регистрации, однако доступен по публичной magnet-ссылке (источники с публичных трекеров). Перед использованием ссылки прочтите, пожалуйста Пользовательское соглашение, а также как можно дольше оставайтесь на раздаче! Для того, чтобы скачать сам торрент-файл (который видит больше источников), а также для того, чтобы поблагодарить релизера, вам необходимо зарегистрироваться. Если регистрироваться лень - вы можете также попробовать скачать релиз по нашим партнерским ссылкам ниже.

[underverse.su].t26411.torrent
Трекер: Зарегистрирован   [ 21.04.2013 13:25 ]  

Статус: проверено (by Чертёнок at 21.04.2013 13:32)
Поблагодарили: 1 человек
Тип торрента: публичный - доступные источники с открытых трекеров: 
Размер: 672 MB (занимает 0,15 DVDR, для записи нужно 1 болванка DVDR/RW)
 
 

матроскин Пол:Муж

21-Апр-2013 13:26

Качайте и смотрите документальные фильмы!

.


Яндекс.Метрика powered by Sphinx


В Н И М А Н И Е
Сайт не распространяет и не хранит электронные версии произведений, а лишь бесплатно и без коммерческой выгоды (не требуя взамен платы,
SMS и т.д.) предоставляет доступ к создаваемому пользователями каталогу ссылок на торрент-файлы, которые содержат только списки хеш-сумм.
Убедительная просьба с жалобами обращаться напрямую к пользователю, разместившему торрент файл.

Вверх