Loading...
Error

Наша Родина - Советский союз [2013 г., документальный, TVRip]

Статистика раздачи
Размер:  1,47 GB   |    Зарегистрирован:  3 года 7 месяцев   |    Скачан:  15 раз

Полного источника не было: 1 день 21 час

Сидов:  0  |  0 KB/s  ]   Личеров:  0  |  0 KB/s  ]

* - сиды/пиры с внешних источников

   
 
Автор Сообщение

матроскин Пол:Муж

21-Апр-2013 13:16

Наша Родина - Советский союз


Год выпуска: 2013
Жанр: документальный
Страна: Россия
Сюжет фильма:
90 лет назад самым крупным государством на карте мира стал Союз Советских Социалистических Республик. В декабре 1922 года в Москве завершилась подготовка Союзного договора, а 29-30 декабря документ был подписан и утвержден Первым Всероссийским съездом Советов.
....Реет гордое красное знамя, память, наших героев отцов, мы смогли победить в битвах и испытаниях, свою веру и правду сберегли от оков...
Качество видео: TVRip

Продолжительность: 01:12:33
Формат: avi
Видео: DivX 4, 874x480, 1036 kbps
Аудио: русский, оригинал, MP3 2.0, 256 kbps

Код:

General
Complete name                    : C:\Users\Security\Videos\Мамонов\Наша родина -- Советский Союз!.avi
Format                           : AVI
Format/Info                      : Audio Video Interleave
Format profile                   : OpenDML
File size                        : 1.47 GiB
Duration                         : 3h 3mn
Overall bit rate                 : 1 143 Kbps
Writing application              : Lavf52.93.0

Video
ID                               : 0
Format                           : MPEG-4 Visual
Format profile                   : Simple@L1
Format settings, BVOP            : No
Format settings, QPel            : No
Format settings, GMC             : No warppoints
Format settings, Matrix          : Default (H.263)
Codec ID                         : DIVX
Codec ID/Info                    : Project Mayo
Codec ID/Hint                    : DivX 4
Duration                         : 3h 3mn
Bit rate                         : 1 036 Kbps
Width                            : 854 pixels
Height                           : 480 pixels
Display aspect ratio             : 16/9
Frame rate                       : 25.000 fps
Resolution                       : 24 bits
Colorimetry                      : 4:2:0
Scan type                        : Progressive
Bits/(Pixel*Frame)               : 0.101
Stream size                      : 1.33 GiB (91%)
Writing library                  : Lavc52.108.0

Audio
ID                               : 1
Format                           : MPEG Audio
Format version                   : Version 1
Format profile                   : Layer 3
Codec ID                         : 55
Codec ID/Hint                    : MP3
Duration                         : 1h 12mn
Bit rate mode                    : Constant
Bit rate                         : 256 Kbps
Channel(s)                       : 2 channels
Sampling rate                    : 44.1 KHz
Resolution                       : 16 bits
Stream size                      : 133 MiB (9%)
Alignment                        : Aligned on interleaves
Interleave, duration             : 26 ms (0.65 video frame)
Writing library                  : LAME3.98.4

picpicpicpicpicpic
Для увеличения картинки щелкните мышкой по превью

Этот торрент недоступен для скачивания без регистрации, однако доступен по публичной magnet-ссылке (источники с публичных трекеров). Перед использованием ссылки прочтите, пожалуйста Пользовательское соглашение, а также как можно дольше оставайтесь на раздаче! Для того, чтобы скачать сам торрент-файл (который видит больше источников), а также для того, чтобы поблагодарить релизера, вам необходимо зарегистрироваться. Если регистрироваться лень - вы можете также попробовать скачать релиз по нашим партнерским ссылкам ниже.

[underverse.su].t26410.torrent
Трекер: Зарегистрирован   [ 21.04.2013 13:16 ]  

Статус: проверено (by Чертёнок at 21.04.2013 13:28)
Поблагодарили: 2 человека
Тип торрента: публичный - доступные источники с открытых трекеров: 
Размер: 1,47 GB (занимает 0,34 DVDR, для записи нужно 1 болванка DVDR/RW)
 
 

матроскин Пол:Муж

21-Апр-2013 13:19

Качайте и смотрите интересное документальное кино
.

матроскин Пол:Муж

21-Апр-2013 15:52

Моя Родина Советский Союз !!!


ссылка

Яндекс.Метрика powered by Sphinx


В Н И М А Н И Е
Сайт не распространяет и не хранит электронные версии произведений, а лишь бесплатно и без коммерческой выгоды (не требуя взамен платы,
SMS и т.д.) предоставляет доступ к создаваемому пользователями каталогу ссылок на торрент-файлы, которые содержат только списки хеш-сумм.
Убедительная просьба с жалобами обращаться напрямую к пользователю, разместившему торрент файл.

Вверх