Loading...
Error

Подрезанные крылья [2013 г., документальный, TVRip]

Статистика раздачи
Размер:  586 MB   |    Зарегистрирован:  3 года 7 месяцев   |    Скачан:  6 раз

Полного источника не было: 8 часов

Сидов:  0  |  0 KB/s  ]   Личеров:  0  |  0 KB/s  ]

* - сиды/пиры с внешних источников

   
 
Автор Сообщение

матроскин Пол:Муж

21-Апр-2013 12:28

Подрезанные крылья


Год выпуска: 2013
Жанр: документальный
Страна: Россия
Сюжет фильма:
В России специально уничтожается гражданская авиация. Мы сегодня используем самолеты иностранных фирм. Следующий шаг- уничтожение самолетостроения и полная зависимость от запада.
Качество видео: TVRip

Продолжительность: 00:25:36
Формат: avi
Видео: DivX 4, 874x480, 2929 kbps
Аудио: русский, оригинал, MP3 2.0, 256 kbps

Код:

General
Complete name                    : C:\Users\Security\Videos\Мамонов\Подрезанные крылья.avi
Format                           : AVI
Format/Info                      : Audio Video Interleave
File size                        : 586 MiB
Duration                         : 25mn 36s
Overall bit rate                 : 3 198 Kbps
Writing application              : Lavf52.93.0

Video
ID                               : 0
Format                           : MPEG-4 Visual
Format profile                   : Simple@L1
Format settings, BVOP            : No
Format settings, QPel            : No
Format settings, GMC             : No warppoints
Format settings, Matrix          : Default (H.263)
Codec ID                         : DIVX
Codec ID/Info                    : Project Mayo
Codec ID/Hint                    : DivX 4
Duration                         : 25mn 36s
Bit rate                         : 2 930 Kbps
Width                            : 854 pixels
Height                           : 480 pixels
Display aspect ratio             : 16/9
Frame rate                       : 25.000 fps
Resolution                       : 24 bits
Colorimetry                      : 4:2:0
Scan type                        : Progressive
Bits/(Pixel*Frame)               : 0.286
Stream size                      : 537 MiB (92%)
Writing library                  : Lavc52.108.0

Audio
ID                               : 1
Format                           : MPEG Audio
Format version                   : Version 1
Format profile                   : Layer 3
Codec ID                         : 55
Codec ID/Hint                    : MP3
Duration                         : 25mn 36s
Bit rate mode                    : Constant
Bit rate                         : 256 Kbps
Channel(s)                       : 2 channels
Sampling rate                    : 44.1 KHz
Resolution                       : 16 bits
Stream size                      : 46.9 MiB (8%)
Alignment                        : Aligned on interleaves
Interleave, duration             : 26 ms (0.65 video frame)
Interleave, preload duration     : 52 ms
Writing library                  : LAME3.98.4

picpicpicpicpicpic
Для увеличения картинки щелкните мышкой по превью

Этот торрент недоступен для скачивания без регистрации, однако доступен по публичной magnet-ссылке (источники с публичных трекеров). Перед использованием ссылки прочтите, пожалуйста Пользовательское соглашение, а также как можно дольше оставайтесь на раздаче! Для того, чтобы скачать сам торрент-файл (который видит больше источников), а также для того, чтобы поблагодарить релизера, вам необходимо зарегистрироваться. Если регистрироваться лень - вы можете также попробовать скачать релиз по нашим партнерским ссылкам ниже.

[underverse.su].t26406.torrent
Трекер: Зарегистрирован   [ 21.04.2013 12:28 ]  

Статус: проверено (by Чертёнок at 21.04.2013 12:33)
Поблагодарили: 1 человек
Тип торрента: публичный - доступные источники с открытых трекеров: 
Размер: 586 MB (занимает 0,13 DVDR, для записи нужно 1 болванка DVDR/RW)
 
 

матроскин Пол:Муж

21-Апр-2013 12:32

Качайте и смотрите интересное документальное кино

альфа Пол:Муж

14-Май-2013 19:42

Путин по указанию из Хьюстена затопил в тихом океане космическую станцию "Мир", и это не удивительно, что он уничтожает самолетостроение.
Уважаемый Матроскин! спасибо за Ваши труды на этом сайте и за правдивые релизы.

Яндекс.Метрика powered by Sphinx


В Н И М А Н И Е
Сайт не распространяет и не хранит электронные версии произведений, а лишь бесплатно и без коммерческой выгоды (не требуя взамен платы,
SMS и т.д.) предоставляет доступ к создаваемому пользователями каталогу ссылок на торрент-файлы, которые содержат только списки хеш-сумм.
Убедительная просьба с жалобами обращаться напрямую к пользователю, разместившему торрент файл.

Вверх