Loading...
Error

По следам мифических чудовищ: Кошмар в амазонии [2010 г., документальный, SatRip]

Статистика раздачи
Размер:  570 MB   |    Зарегистрирован:  3 года 7 месяцев   |    Скачан:  14 раз

Полного источника не было: 5 месяцев 17 дней

Сидов:  0  |  0 KB/s  ]   Личеров:  0  |  0 KB/s  ]

* - сиды/пиры с внешних источников

   
 
Автор Сообщение

матроскин Пол:Муж

21-Апр-2013 11:55

По следам мифических чудовищ: Кошмар в амазонии


Год выпуска: 2010
Жанр: документальный
Страна: США
Режиссер: Бен Рой
Сюжет фильма:
В самом сердце бразильской амазонии ходят легенды об огромном одноглазом чудище с беспощадными когтями, свирепым воем, зловонным запахом и широко раскрывающейся пастью. Местные жители боятся произносить его имя. Для одних это существо из мира духов, для других же, пострадавших от него, этот зверь ещё как реален. Многие из тех, кто с ним сталкивался, говорят, что это сам дьявол. Пат Спейн, биолог и охотник за чудовищами отправляется на поиски правды об этом чудовище из амазонии.
Качество видео: SatRip

Продолжительность: 00:44:58
Формат: avi
Видео: XviD, 704x400, 1634 kbps
Аудио: русский, одноголосый закадровый [профессиональный], MP3 2.0, 128 kbps

Код:

General
Complete name                    : C:\Users\Security\Videos\Мамонов\Beast_Man_Amazon_Nightmare.avi
Format                           : AVI
Format/Info                      : Audio Video Interleave
File size                        : 570 MiB
Duration                         : 44mn 58s
Overall bit rate                 : 1 772 Kbps
Writing application              : VirtualDubMod 1.5.10.3 | www.virtualdub-fr.org || (build 2550/release)
Writing library                  : VirtualDubMod build 2550/release

Video
ID                               : 0
Format                           : MPEG-4 Visual
Format profile                   : Streaming Video@L1
Format settings, BVOP            : Yes
Format settings, QPel            : No
Format settings, GMC             : No warppoints
Format settings, Matrix          : Default (H.263)
Codec ID                         : XVID
Codec ID/Hint                    : XviD
Duration                         : 44mn 58s
Bit rate                         : 1 634 Kbps
Width                            : 704 pixels
Height                           : 400 pixels
Display aspect ratio             : 16/9
Frame rate                       : 25.000 fps
Resolution                       : 24 bits
Colorimetry                      : 4:2:0
Scan type                        : Progressive
Bits/(Pixel*Frame)               : 0.232
Stream size                      : 526 MiB (92%)
Writing library                  : XviD 65

Audio
ID                               : 1
Format                           : MPEG Audio
Format version                   : Version 1
Format profile                   : Layer 3
Codec ID                         : 55
Codec ID/Hint                    : MP3
Duration                         : 44mn 58s
Bit rate mode                    : Constant
Bit rate                         : 128 Kbps
Channel(s)                       : 2 channels
Sampling rate                    : 48.0 KHz
Resolution                       : 16 bits
Stream size                      : 41.2 MiB (7%)
Alignment                        : Aligned on interleaves
Interleave, duration             : 40 ms (1.00 video frame)
Interleave, preload duration     : 504 ms
Writing library                  : LAME3.99.5ЄЄЄЄЄЄЄЄЄЄ

picpicpicpicpicpic
Для увеличения картинки щелкните мышкой по превью

Этот торрент недоступен для скачивания без регистрации, однако доступен по публичной magnet-ссылке (источники с публичных трекеров). Перед использованием ссылки прочтите, пожалуйста Пользовательское соглашение, а также как можно дольше оставайтесь на раздаче! Для того, чтобы скачать сам торрент-файл (который видит больше источников), а также для того, чтобы поблагодарить релизера, вам необходимо зарегистрироваться. Если регистрироваться лень - вы можете также попробовать скачать релиз по нашим партнерским ссылкам ниже.

[underverse.su].t26403.torrent
Трекер: Зарегистрирован   [ 21.04.2013 11:55 ]  

Статус: проверено (by Чертёнок at 21.04.2013 12:03)
Поблагодарили: 2 человека
Тип торрента: публичный - доступные источники с открытых трекеров: 
Размер: 570 MB (занимает 0,13 DVDR, для записи нужно 1 болванка DVDR/RW)
 
 
Похожие темы
Форум Тема Автор Торрент Отв. Посл. сооб.
Зарубежное кино [DVDRip, Low-Res HDRip, и т.д.] По следам призраков / Ghosthunters (Тео Пирри) [2016 г., ужасы, WEB-DLRip] MVO makkol
148 | 5

0 | 238

13

12.07.2016 11:51

Научно-популярные фильмы По следам ирбиса [2011 г., документальный, природа, научно-познавательный, SatRip] ARI71
2 | 0

0 | 816

2

29.02.2016 11:07



Последний раз редактировалось: матроскин (07.05.2013 02:55), всего редактировалось 1 раз

матроскин Пол:Муж

21-Апр-2013 12:32

Качайте и смотрите интересное документальное кино
.

StormtrooperПол:Муж

01-Май-2013 20:48

Привет!Ты где?Меня там так же забанили.Люди пишут не могу ответить.В личку писать не могу еще 10 коментариев не оставил.Что не оповещаешь?Вот ты валишь с выкладками.Блин у меня самого 4тб хроники,лень выкладывать

Яндекс.Метрика powered by Sphinx


В Н И М А Н И Е
Сайт не распространяет и не хранит электронные версии произведений, а лишь бесплатно и без коммерческой выгоды (не требуя взамен платы,
SMS и т.д.) предоставляет доступ к создаваемому пользователями каталогу ссылок на торрент-файлы, которые содержат только списки хеш-сумм.
Убедительная просьба с жалобами обращаться напрямую к пользователю, разместившему торрент файл.

Вверх