Loading...
Error

Кремень 2. Освобождение / Серии: 1-4 [4] ( Владимир Епифанцев) [2013 г., Боевик, SatRip]

Статистика раздачи
Размер:  2,02 GB   |    Зарегистрирован:  3 года 7 месяцев   |    Скачан:  56 раз
Сидов:  2  |  17 KB/s  ]   Личеров:  0  |  0 KB/s  ]

* - сиды/пиры с внешних источников

   
 
Автор Сообщение

nemos Пол:Муж

20-Апр-2013 19:06

Кремень 2. Освобождение


Год выпуска: 2013
Жанр: боевик
Режиссер: Владимир Епифанцев
В ролях: Владимир Епифанцев, Анастасия ВеденскаяСергей Векслер,
Сюжет фильма:
Отставной майор Андрей Шаманов, после долгих лет службы, учится жить мирной жизнью. Но когда бывшим коллегам требуется помощь, даже счастье с любимой женщиной не способно заставить его отказаться от опасного задания: расследовать причину гибели группы спецназа, проводившей учение в горах, где скрывается группировка контрабандистов. В ходе работы Андрея ждут испытания: преступники похищают его возлюбленную и шантажируют героя, на что опытный военный Шаманов решает ответить штурмом. Удачно спланировав операцию, Андрей находит свою Настю, освобождая вместе с ней еще нескольких заложников. Но главная опасность впереди — преступники не позволят Андрею, а также нескольким свидетелям просто так сбежать с тайной базы…


Качество видео: SatRip

Продолжительность: 00:53:54 серия
Формат: AVI
Видео: XviD, 704x384, 1 150kbps
Аудио: русский, MP3 2.0, 128 kbps

Код:

F:\С underverse-3 Фильмы\Kremen.Oswobozdenie.2013.SATRip\Kremen.Osvobozdenie.(1.serija).2013.XviD.SATRip.avi
   General
      Complete name : F:\С underverse-3 Фильмы\Kremen.Oswobozdenie.2013.SATRip\Kremen.Osvobozdenie.(1.serija).2013.XviD.SATRip.avi
      Format : AVI
      Format/Info : Audio Video Interleave
      File size : 497 MiB
      Duration : 53mn 54s
      Overall bit rate : 1 288 Kbps
      Writing application : VirtualDubMod 1.5.10.2 (build 2540/release)
      Writing library : VirtualDubMod build 2540/release
   Video #0
      ID : 0
      Format : MPEG-4 Visual
      Format profile : Simple@L3
      Format settings, BVOP : No
      Format settings, QPel : No
      Format settings, GMC : No warppoints
      Format settings, Matrix : Default (H.263)
      Codec ID : XVID
      Codec ID/Hint : XviD
      Duration : 53mn 54s
      Bit rate : 1 150 Kbps
      Width : 704 pixels
      Height : 384 pixels
      Display aspect ratio : 1.85:1
      Frame rate : 25.000 fps
      Color space : YUV
      Chroma subsampling : 4:2:0
      Bit depth : 8 bits
      Scan type : Progressive
      Compression mode : Lossy
      Bits/(Pixel*Frame) : 0.170
      Stream size : 444 MiB (89%)
      Writing library : XviD 1.1.2 (UTC 2006-11-01)
   Audio #1
      ID : 1
      Format : MPEG Audio
      Format version : Version 1
      Format profile : Layer 3
      Mode : Joint stereo
      Mode extension : MS Stereo
      Codec ID : 55
      Codec ID/Hint : MP3
      Duration : 53mn 54s
      Bit rate mode : Constant
      Bit rate : 128 Kbps
      Channel(s) : 2 channels
      Sampling rate : 48.0 KHz
      Compression mode : Lossy
      Stream size : 49.4 MiB (10%)
      Alignment : Split accross interleaves
      Interleave, duration : 40 ms (1.00 video frame)
      Interleave, preload duration : 500 ms
      Writing library : LAME3.98
Семпл: http://multi-up.com/856915

picpicpicpicpicpicpicpicpicpicpicpicpicpicpicpicpicpic
Для увеличения картинки щелкните мышкой по превью
Сериал который был выложен и зарегистрирован более двух месяцев назад буду раздавать с 23.00ч до 06.00ч утра ( вина в этом не моя, а пользователей которые не поддерживают раздачу)

Этот торрент недоступен для скачивания без регистрации, однако доступен по публичной magnet-ссылке (источники с публичных трекеров). Перед использованием ссылки прочтите, пожалуйста Пользовательское соглашение, а также как можно дольше оставайтесь на раздаче! Для того, чтобы скачать сам торрент-файл (который видит больше источников), а также для того, чтобы поблагодарить релизера, вам необходимо зарегистрироваться. Если регистрироваться лень - вы можете также попробовать скачать релиз по нашим партнерским ссылкам ниже.

[underverse.su].t26395.torrent
Трекер: Зарегистрирован   [ 21.04.2013 01:58 ]  

Статус: проверено (by TERRAN at 21.04.2013 06:09)
Поблагодарили: 7 человек
Тип торрента: публичный - доступные источники с открытых трекеров: 
Размер: 2,02 GB (занимает 0,46 DVDR, для записи нужно 1 болванка DVDR/RW)
 
 


Последний раз редактировалось: nemos (03.10.2013 07:21), всего редактировалось 4 раз(а)

nemos Пол:Муж

20-Апр-2013 19:41

Торрент обновлен (4)

Яндекс.Метрика powered by Sphinx


В Н И М А Н И Е
Сайт не распространяет и не хранит электронные версии произведений, а лишь бесплатно и без коммерческой выгоды (не требуя взамен платы,
SMS и т.д.) предоставляет доступ к создаваемому пользователями каталогу ссылок на торрент-файлы, которые содержат только списки хеш-сумм.
Убедительная просьба с жалобами обращаться напрямую к пользователю, разместившему торрент файл.

Вверх