Loading...
Error

Леди исчезает / The Lady Vanishes (Дьярмуид Лоуренс / Diarmuid Lawrence) [2013 г., триллер, драма, HDTVRip] DVO

Статистика раздачи
Размер:  827 MB   |    Зарегистрирован:  3 года 7 месяцев   |    Скачан:  16 раз

Полного источника не было: 9 месяцев

Сидов:  0  |  0 KB/s  ]   Личеров:  0  |  0 KB/s  ]

* - сиды/пиры с внешних источников

   
 
Автор Сообщение

Gaarochi Пол:Муж

20-Апр-2013 06:47

Леди исчезает / The Lady Vanishes


Год выпуска: 2013
Жанр: триллер, драма
Страна: Великобритания
Режиссер: Дьярмуид Лоуренс / Diarmuid Lawrence
В ролях: Таппенс Миддлтон, Кили Хоуз, Джулиан Райнд-Татт, Паоло Антонио, Том Хьюз, Еспер Кристенсен, Стефани Коул, Джемма Джонс



Сюжет фильма:
Возвращаясь с отдыха, молодая и богатая Айрис Карр знакомится в поезде с пожилой соотечественницей, мисс Фрой. Ещё на вокзале, ожидая поезд, Айрис получила солнечный удар, и теперь, добравшись до места, забылась тревожным сном. А когда проснулась, обнаружила, что мисс Фрой самым таинственным образом исчезла. Более того, все попутчики уверяют: англичанка в этом купе была только одна - сама мисс Карр. Девушка начинает подозревать заговор и решает во что бы то ни стало докопаться до сути...

  • Мировая премьера: 17 марта 2013






Качество видео: HDTVRip
Продолжительность: 01:26:15
Формат: AVI
Видео: XviD, 608x336, 1005 kbps
Аудио: русский, двухголосый закадровый [любительский] студия "Райдо", MP3 2.0, 192 kbps
Субтитры #1: тип: внешние, русский, формат: SRT
Субтитры #2: тип: внешние, английский, формат: SRT

Код:

Общее
 Полное имя : F:\torrents\The Lady Vanishes\The Lady Vanishes.avi
 Формат : AVI
 Формат/Информация : Audio Video Interleave
 Размер файла : 826 Мбайт
 Продолжительность : 1 ч. 26 м.
 Общий поток : 1339 Кбит/сек
 Программа кодирования : VirtualDubMod 1.5.10.2 (build 2540/release)
 Библиотека кодирования : VirtualDubMod build 2540/release

Видео
 Идентификатор : 0
 Формат : MPEG-4 Visual
 Профиль формата : Advanced Simple@L5
 Параметр BVOP формата : 2
 Параметр QPel формата : Нет
 Параметр GMC формата : Без точки перехода
 Параметр матрицы формата : Default (H.263)
 Режим смешивания : Сжатый битовый поток
 Идентификатор кодека : XVID
 Идентификатор кодека/Подсказка : XviD
 Продолжительность : 1 ч. 26 м.
 Битрейт : 1005 Кбит/сек
 Ширина : 608 пикселей
 Высота : 336 пикселей
 Соотношение сторон : 16:9
 Частота кадров : 25,000 кадров/сек
 Цветовое пространство : YUV
 Субдискретизация насыщенности : 4:2:0
 Битовая глубина : 8 бит
 Тип развёртки : Прогрессивная
 Метод сжатия : С потерями
 Бит/(Пиксели*Кадры) : 0.197
 Размер потока : 620 Мбайт (75%)
 Библиотека кодирования : XviD 1.2.1 (UTC 2008-12-04)

Аудио #1
 Идентификатор : 1
 Формат : MPEG Audio
 Версия формата : Version 1
 Профиль формата : Layer 3
 Режим : Joint stereo
 Идентификатор кодека : 55
 Идентификатор кодека/Подсказка : MP3
 Продолжительность : 1 ч. 26 м.
 Вид битрейта : Постоянный
 Битрейт : 192 Кбит/сек
 Каналы : 2 канала
 Частота : 48,0 КГц
 Метод сжатия : С потерями
 Размер потока : 118 Мбайт (14%)
 Выравнивание : Соединение по промежуткам
 Продолжительность промежутка : 40 мс. (1,00 видеокадр)
 Время предзагрузки промежутка : 504 мс.

Аудио #2
 Идентификатор : 2
 Формат : MPEG Audio
 Версия формата : Version 1
 Профиль формата : Layer 3
 Режим : Joint stereo
 Расширение режима : MS Stereo
 Идентификатор кодека : 55
 Идентификатор кодека/Подсказка : MP3
 Продолжительность : 1 ч. 26 м.
 Вид битрейта : Постоянный
 Битрейт : 128 Кбит/сек
 Каналы : 2 канала
 Частота : 48,0 КГц
 Метод сжатия : С потерями
 Размер потока : 79,0 Мбайт (10%)
 Выравнивание : Соединение по промежуткам
 Продолжительность промежутка : 40 мс. (1,00 видеокадр)
 Время предзагрузки промежутка : 504 мс.
picpicpic
Для увеличения картинки щелкните мышкой по превью

Этот торрент недоступен для скачивания без регистрации, однако доступен по публичной magnet-ссылке (источники с публичных трекеров). Перед использованием ссылки прочтите, пожалуйста Пользовательское соглашение, а также как можно дольше оставайтесь на раздаче! Для того, чтобы скачать сам торрент-файл (который видит больше источников), а также для того, чтобы поблагодарить релизера, вам необходимо зарегистрироваться. Если регистрироваться лень - вы можете также попробовать скачать релиз по нашим партнерским ссылкам ниже.

[underverse.su].t26357.torrent
Трекер: Зарегистрирован   [ 20.04.2013 06:47 ]  

Статус: проверено (by Паукан at 20.04.2013 10:55)
Поблагодарили: 3 человека
Тип торрента: публичный - доступные источники с открытых трекеров: 
Размер: 827 MB (занимает 0,18 DVDR, для записи нужно 1 болванка DVDR/RW)
 
 
Похожие темы
Форум Тема Автор Торрент Отв. Посл. сооб.
Зарубежное кино [DVDRip, Low-Res HDRip, и т.д.] Леди исчезает / The Lady Vanishes (Дьярмуид Лоуренс) [2013 г., драма, мелодрама, WEB-DLRip] MVO [Baibako] RG NewCinema
29 | 2

0 | 956

24

11.04.2013 06:30


Яндекс.Метрика powered by Sphinx


В Н И М А Н И Е
Сайт не распространяет и не хранит электронные версии произведений, а лишь бесплатно и без коммерческой выгоды (не требуя взамен платы,
SMS и т.д.) предоставляет доступ к создаваемому пользователями каталогу ссылок на торрент-файлы, которые содержат только списки хеш-сумм.
Убедительная просьба с жалобами обращаться напрямую к пользователю, разместившему торрент файл.

Вверх