Loading...
Error

Тайна перевала Дятлова / The Dyatlov Pass Incident (Ренни Харлин) [2013 г., триллер, ужасы, фантастика, BDRip] MVO HQ Underverse

Статистика раздачи
Размер:  1,45 GB   |    Зарегистрирован:  3 года 7 месяцев   |    Скачан:  213 раз
Сидов:  1  |  0 KB/s  ]   Личеров:  0  |  0 KB/s  ]

* - сиды/пиры с внешних источников

   
 
Автор Сообщение

HQ Underverse 

19-Апр-2013 12:45

Тайна перевала Дятлова / The Dyatlov Pass Incident


Год выпуска: 2013
Жанр: триллер, ужасы, фантастика
Страна: США
Режиссер: Ренни Харлин
В ролях: Холли Госс, Мэтт Стокоу, Люк Олбрайт, Райан Хоули, Джемма Аткинсон, Николай Бутенин, Ричард Рейд, Анастасия Бурдина, Валерия Федорович, Нелли Нилсен
Сюжет фильма:
Сюжет фильма основан на реальных событиях, произошедших в 1959-м году. В 2012-м году группа американских студентов, получив грант, отправляется на уральские горы, следуя тем же маршрутом, что и группа Дятлова, чтобы попытаться восстановить картину и разгадать причину таинственной, мистической и до сих пор не разгаданной гибели советских лыжников.

  • Мировая премьера: 28 февраля 2013
  • Российская премьера: 28 февраля 2013, «Двадцатый Век Фокс СНГ», «A Company»

/
Качество видео: BDRip

Продолжительность: 01:40:24
Формат: avi
Видео: XviD, 720x400, 1679 kbps
Аудио: русский, многоголосый закадровый [профессиональный], AC3 5.1, 384 kbps

Код:

General
Complete name                    : G:\Тайна перевала Дятлова\The.Dyatlov.Pass.Incident.BDRip.XviD.AC3.Rus.P.HQ.Underverse.avi
Format                           : AVI
Format/Info                      : Audio Video Interleave
File size                        : 1.45 GiB
Duration                         : 1h 40mn
Overall bit rate                 : 2 073 Kbps
Writing application              : VirtualDubMod 1.5.10.2 (build 2540/release)
Writing library                  : VirtualDubMod build 2540/release

Video
ID                               : 0
Format                           : MPEG-4 Visual
Format profile                   : Streaming Video@L1
Format settings, BVOP            : Yes
Format settings, QPel            : No
Format settings, GMC             : No warppoints
Format settings, Matrix          : Custom
Muxing mode                      : Packed bitstream
Codec ID                         : XVID
Codec ID/Hint                    : XviD
Duration                         : 1h 40mn
Bit rate                         : 1 680 Kbps
Width                            : 720 pixels
Height                           : 400 pixels
Display aspect ratio             : 16/9
Frame rate                       : 24.000 fps
Resolution                       : 24 bits
Colorimetry                      : 4:2:0
Scan type                        : Progressive
Bits/(Pixel*Frame)               : 0.243
Stream size                      : 1.18 GiB (81%)
Writing library                  : XviD 64

Audio
ID                               : 1
Format                           : AC-3
Format/Info                      : Audio Coding 3
Codec ID                         : 2000
Duration                         : 1h 40mn
Bit rate mode                    : Constant
Bit rate                         : 384 Kbps
Channel(s)                       : 6 channels
Channel positions                : Front: L C R, Surround: L R, LFE
Sampling rate                    : 48.0 KHz
Stream size                      : 276 MiB (19%)
Alignment                        : Split accross interleaves
Interleave, duration             : 42 ms (1.00 video frame)
Interleave, preload duration     : 500 ms

Релиз группы:

picpicpic
Для увеличения картинки щелкните мышкой по превью

Этот торрент недоступен для скачивания без регистрации, однако доступен по публичной magnet-ссылке (источники с публичных трекеров). Перед использованием ссылки прочтите, пожалуйста Пользовательское соглашение, а также как можно дольше оставайтесь на раздаче! Для того, чтобы скачать сам торрент-файл (который видит больше источников), а также для того, чтобы поблагодарить релизера, вам необходимо зарегистрироваться. Если регистрироваться лень - вы можете также попробовать скачать релиз по нашим партнерским ссылкам ниже.

[underverse.su].t26311.torrent
Трекер: Зарегистрирован   [ 19.04.2013 12:45 ]  

Статус: проверено (by HQ Underverse at 19.04.2013 12:46)
Поблагодарили: 12 человек
Тип торрента: публичный - доступные источники с открытых трекеров: 
Размер: 1,45 GB (занимает 1/3 DVDR, для записи нужно 1 болванка DVDR/RW)
 
 
Похожие темы
Форум Тема Автор Торрент Отв. Посл. сооб.
Зарубежное кино [DVDRip, Low-Res HDRip, и т.д.] Тайна перевала Дятлова (Ренни Харлин) [2013 г., триллер, ужасы, фантастика, BDRip] MVO [лицензия] TERRAN
202 | 5

2 | 1508

114

18.04.2013 15:09

Зарубежное кино [DVDRip, Low-Res HDRip, и т.д.] Тайна перевала Дятлова / The Dyatlov Pass Incident (Ренни Харлин) [2013 г., ужасы, триллер, HDRip-AVC] MVO 90ytr90
51 | 0

0 | 1107

55

18.04.2013 14:14

Зарубежное кино [DVDRip, Low-Res HDRip, и т.д.] Тайна перевала Дятлова / The Dyatlov Pass Incident (Ренни Харлин / Renny Harlin) [2013, Ужасы, триллер, BDRip] MVO (R5) Garnett
29 | 0

0 | 495

27

26.04.2013 16:57

Зарубежное кино [DVD / HDDVD / BD / Remux] Тайна перевала Дятлова / The Dyatlov Pass Incident (Ренни Харлин / Renny Harlin) [2013, Россия, США, триллер, ужасы, фантастика, DVD5 (Сжатый)] MVO TERRAN
3 | 0

0 | 997

13

22.04.2013 17:04

Зарубежное кино [DVD / HDDVD / BD / Remux] Тайна перевала Дятлова / The Dyatlov Pass Incident (Ренни Харлин / Renny Harlin) [2013, Россия, США, триллер, ужасы, фантастика, Blu-ray Disc 1080p] MVO TERRAN
3 | 0

0 | 1164

14

24.04.2013 17:28

Зарубежное кино [HDDVDRip / BDRip / WEB-DL / HDTV 1080/720р] Тайна перевала Дятлова / The Dyatlov Pass Incident (Ренни Харлин / Renny Harlin) [2013 г., триллер, ужасы, фантастика, BDRip 1080p] MVO 90ytr90
1 | 0

0 | 397

8

26.04.2013 20:28


Яндекс.Метрика powered by Sphinx


В Н И М А Н И Е
Сайт не распространяет и не хранит электронные версии произведений, а лишь бесплатно и без коммерческой выгоды (не требуя взамен платы,
SMS и т.д.) предоставляет доступ к создаваемому пользователями каталогу ссылок на торрент-файлы, которые содержат только списки хеш-сумм.
Убедительная просьба с жалобами обращаться напрямую к пользователю, разместившему торрент файл.

Вверх