Loading...
Error

Утес. Тигры и люди / Utes. Les Tigres et les Gens [2009 г., документальный, TVRip]

Статистика раздачи
Размер:  1,35 GB   |    Зарегистрирован:  3 года 7 месяцев   |    Скачан:  0 раз

Полного источника не было: 3 года 1 месяц

Сидов:  0  |  0 KB/s  ]   Личеров:  0  |  0 KB/s  ]

* - сиды/пиры с внешних источников

   
 
Автор Сообщение

матроскин Пол:Муж

18-Апр-2013 21:40

Утес. Тигры и люди / Utes. Les Tigres et les Gens


Год выпуска: 2009
Жанр: документальный
Страна: Франция
Режиссер: Жан Афанасьев
Сюжет фильма:
Над дальневосточной тайгой поднимается туман. Эти непроходимые леса служат последним убежищем амурскому тигру. Тайга настоящая сокровищница разнообразия фауны. Здесь в лесах, часто называемыми "Северными джунглями" обитают редкие и охраняемые виды животных... - об этом в фильме "Утес. Тигры и люди".
Качество видео: TVRip

Продолжительность: 00:50:47
Формат: avi
Видео: DivX 4, 768x576, 1399 kbps
Аудио: русский, дублированный, MP3 2.0, 256 kbps

Код:

General
Complete name                    : C:\Users\Security\Videos\Мамонов\Утес. Тигры и люди.avi
Format                           : AVI
Format/Info                      : Audio Video Interleave
Format profile                   : OpenDML
File size                        : 1.35 GiB
Duration                         : 2h 8mn
Overall bit rate                 : 1 506 Kbps
Writing application              : Lavf52.93.0

Video
ID                               : 0
Format                           : MPEG-4 Visual
Format profile                   : Simple@L1
Format settings, BVOP            : No
Format settings, QPel            : No
Format settings, GMC             : No warppoints
Format settings, Matrix          : Default (H.263)
Codec ID                         : DIVX
Codec ID/Info                    : Project Mayo
Codec ID/Hint                    : DivX 4
Duration                         : 2h 8mn
Bit rate                         : 1 399 Kbps
Width                            : 720 pixels
Height                           : 576 pixels
Display aspect ratio             : 4/3
Frame rate                       : 25.000 fps
Standard                         : PAL
Resolution                       : 24 bits
Colorimetry                      : 4:2:0
Scan type                        : Progressive
Bits/(Pixel*Frame)               : 0.135
Stream size                      : 1.26 GiB (93%)
Writing library                  : Lavc52.108.0

Audio
ID                               : 1
Format                           : MPEG Audio
Format version                   : Version 1
Format profile                   : Layer 3
Codec ID                         : 55
Codec ID/Hint                    : MP3
Duration                         : 50mn 47s
Bit rate mode                    : Constant
Bit rate                         : 256 Kbps
Channel(s)                       : 2 channels
Sampling rate                    : 44.1 KHz
Resolution                       : 16 bits
Stream size                      : 93.0 MiB (7%)
Alignment                        : Aligned on interleaves
Interleave, duration             : 26 ms (0.65 video frame)
Interleave, preload duration     : 26 ms

picpicpicpicpicpic
Для увеличения картинки щелкните мышкой по превью

Этот торрент недоступен для скачивания без регистрации, однако доступен по публичной magnet-ссылке (источники с публичных трекеров). Перед использованием ссылки прочтите, пожалуйста Пользовательское соглашение, а также как можно дольше оставайтесь на раздаче! Для того, чтобы скачать сам торрент-файл (который видит больше источников), а также для того, чтобы поблагодарить релизера, вам необходимо зарегистрироваться. Если регистрироваться лень - вы можете также попробовать скачать релиз по нашим партнерским ссылкам ниже.

[underverse.su].t26286.torrent
Трекер: Зарегистрирован   [ 18.04.2013 21:40 ]  

Статус: проверено (by Чертёнок at 19.04.2013 10:15)
Поблагодарили: пока никто не поблагодарил...
Тип торрента: публичный - доступные источники с открытых трекеров: 
Размер: 1,35 GB (занимает 0,31 DVDR, для записи нужно 1 болванка DVDR/RW)
 
 


Последний раз редактировалось: матроскин (19.04.2013 06:07), всего редактировалось 1 раз

матроскин Пол:Муж

18-Апр-2013 21:47

.

Яндекс.Метрика powered by Sphinx


В Н И М А Н И Е
Сайт не распространяет и не хранит электронные версии произведений, а лишь бесплатно и без коммерческой выгоды (не требуя взамен платы,
SMS и т.д.) предоставляет доступ к создаваемому пользователями каталогу ссылок на торрент-файлы, которые содержат только списки хеш-сумм.
Убедительная просьба с жалобами обращаться напрямую к пользователю, разместившему торрент файл.

Вверх