Loading...
Error

Флинтстоуны / The Flintstones, сезоны 1-5 из 6 (Джозеф Барбера, Уильям Ханна) [1960-1966 г., мультфильм, комедия, семейный, DVDRip] MVO

Статистика раздачи
Размер:  24,94 GB   |    Зарегистрирован:  3 года 7 месяцев   |    Скачан:  6 раз

Полного источника не было: 8 месяцев

Сидов:  0  |  0 KB/s  ]   Личеров:  0  |  0 KB/s  ]

* - сиды/пиры с внешних источников

   
 
Автор Сообщение

Печаль'ka Пол:Жен

16-Апр-2013 12:12



Год выпуска: 1960-1966
Жанр: мультфильм, комедия, семейный
Сезон: 1-5
Страна: США
Режиссер: Джозеф Барбера, Уильям Ханна
Роли озвучивали: Геннадий Богачёв, Юрий Саранцев, Валерий Захарьев, Вячеслав Баранов, Евгений Иванов
Сюжет фильма:
Хотите стать свидетелем легенды каменного века?
Следите за приключениями самого популярного мультяшного пещерного клана в этой доисторической ретроспективе, представляющей самые первые истории Фреда и Уилмы Флинстоун и их лучших друзей - Барни и Бетти Рабл!

|
Качество видео: DVDRip

Продолжительность: 00:23:03
Формат: avi
Видео: XviD, 640x480, 1529 kbps
Аудио: русский, многоголосый закадровый [профессиональный], MP3 2.0, 128 kbps

Код:

General
Complete name                    : D:\Video\Флинстоуны\Флинтстоны\Сезон 1\04 - No Help Wanted.avi
Format                           : AVI
Format/Info                      : Audio Video Interleave
File size                        : 275 MiB
Duration                         : 23mn 3s
Overall bit rate                 : 1 667 Kbps
Writing application              : VirtualDubMod 1.5.10.2 (build 2542/release)
Writing library                  : VirtualDubMod build 2542/release

Video
ID                               : 0
Format                           : MPEG-4 Visual
Format profile                   : Streaming Video@L1
Format settings, BVOP            : Yes
Format settings, QPel            : No
Format settings, GMC             : No warppoints
Format settings, Matrix          : Default (H.263)
Muxing mode                      : Packed bitstream
Codec ID                         : XVID
Codec ID/Hint                    : XviD
Duration                         : 23mn 3s
Bit rate                         : 1 529 Kbps
Width                            : 640 pixels
Height                           : 480 pixels
Display aspect ratio             : 4/3
Frame rate                       : 25.000 fps
Resolution                       : 24 bits
Colorimetry                      : 4:2:0
Scan type                        : Progressive
Bits/(Pixel*Frame)               : 0.199
Stream size                      : 252 MiB (92%)
Writing library                  : XviD 1.0.3 (UTC 2004-12-20)

Audio
ID                               : 1
Format                           : MPEG Audio
Format version                   : Version 1
Format profile                   : Layer 3
Codec ID                         : 55
Codec ID/Hint                    : MP3
Duration                         : 23mn 3s
Bit rate mode                    : Constant
Bit rate                         : 128 Kbps
Channel(s)                       : 2 channels
Sampling rate                    : 48.0 KHz
Resolution                       : 16 bits
Stream size                      : 21.1 MiB (8%)
Alignment                        : Aligned on interleaves
Interleave, duration             : 40 ms (1.00 video frame)
Interleave, preload duration     : 504 ms

Продолжительность: 00:25:20
Формат: mkv
Видео: XviD, 640x480, 1175 kbps
Аудио: английский, оригинал, MP3 2.0, 96 kbps
Субтитры: вшитые отключаемые, S_TEXT/UTF8, русский

Код:

General
Complete name                    : D:\Video\Флинстоуны\The Flintstones\Сезон 5\06 - Cinderella Stone.mkv
Format                           : Matroska
File size                        : 235 MiB
Duration                         : 25mn 20s
Overall bit rate                 : 1 297 Kbps
Encoded date                     : UTC 2013-02-09 10:00:25
Writing application              : mkvmerge v5.7.0 ('The Whirlwind') built on Jul  8 2012 20:08:51
Writing library                  : libebml v1.2.3 + libmatroska v1.3.0

Video
ID                               : 1
Format                           : MPEG-4 Visual
Format profile                   : Streaming Video@L1
Format settings, BVOP            : Yes
Format settings, QPel            : No
Format settings, GMC             : No warppoints
Format settings, Matrix          : Default (H.263)
Codec ID                         : XVID
Codec ID/Hint                    : XviD
Duration                         : 25mn 20s
Bit rate                         : 1 175 Kbps
Width                            : 640 pixels
Height                           : 480 pixels
Display aspect ratio             : 4/3
Frame rate                       : 25.000 fps
Resolution                       : 24 bits
Colorimetry                      : 4:2:0
Scan type                        : Progressive
Bits/(Pixel*Frame)               : 0.153
Stream size                      : 213 MiB (91%)
Writing library                  : XviD 1.2.1 (UTC 2008-12-04)

Audio
ID                               : 2
Format                           : MPEG Audio
Format version                   : Version 1
Format profile                   : Layer 3
Codec ID                         : A_MPEG/L3
Codec ID/Hint                    : MP3
Duration                         : 25mn 20s
Bit rate mode                    : Constant
Bit rate                         : 96.0 Kbps
Channel(s)                       : 2 channels
Sampling rate                    : 44.1 KHz
Resolution                       : 16 bits
Stream size                      : 17.4 MiB (7%)
Writing library                  : LAME

Text
ID                               : 3
Format                           : UTF-8
Codec ID                         : S_TEXT/UTF8
Codec ID/Info                    : UTF-8 Plain Text

Цветовые обозачения:
█ - Выложенные серии
- Выложенные серии без озвучки (с русскими субтитрами)
- Отсутствующие серии
1-й Сезон:
01 - The Flintstone Flyer
02 - Hot Lips Hannigan
03 - The Swimming Pool
04 - No Help Wanted
05 - The Split Personality
06 - The Monster From The Tar Pits
07 - The Babysitters
08 - At The Races
09 - The Engagement Ring
10 - Hollyrock, Here I Come
11 - The Golf Champion
12 - The Sweepstakes Ticket
13 - The Drive - In
14 - The Prowler
15 - The Girls Night Out
16 - Arthur Quarry's Dance Class
17 - The Big Bank Robbery
18 - The Snorkasaurus Hunter
19 - The Hot Piano
20 - The Hypnotist
21 - Love Letters on the Rocks
22 - The Tycoon
23 - The Astra' Nuts
24 - The Long, Long Weekend
25 - In the Dough
26 - The Good Scout
27 - Rooms For Rent
28 - Fred Flintstone Before And After
2-й Сезон:
01 - The Hit Song Writers
02 - Droop Along Flintstone
03 - The Missing Bus
04 - Alvin Brickrock Presents
05 - Fred Flintstone Woos Again
06 - The Rock Quarry Story
07 - The Soft Touchables
08 - Flintstone Of Prinstone
09 - The Little White Lie
10 - Social Climbers
11 - The Beauty Contest
12 - The Masquerade Ball
13 - The Picnic
14 - The House Guest
15 - The X-Ray Story
16 - The Gambler
17 - A Star Is Almost Born
18 - The Entertainer
19 - Wilma's Vanishing Money
20 - Fuedin' And Fussin'
21 - Impractical Joker
22 - Operation Barney
23 - The Happy Household
24 - Fred Strikes Out
25 - This Is Your Lifesaver
26 - Trouble-In-Law
27 - The Mailman Cometh
28 - The Rock Vegas Story
29 - Divided We Sail
30 - Kleptomaniac Caper
31 - Latin Lover
32 - Take Me Out To The Ball Game
3-й Сезон:
01 - Dino Goes Hollyrock
02 - Fred's New Boss
03 - Invisible Barney
04 - Bowling Ballet
05 - The Twitch
06 - Here's Snow In Your Eyes
07 - The Buffalo Convention
08 - The Little Stranger
09 - Baby Barney
10 - Hawaian Escapade
11 - Ladies' Day
12 - Nuttin' But The Tooth
13 - High School Fred
14 - Dial S For Suspicion
15 - Flash Gun Freddie
16 - The Kissing Burglar
17 - Wilma, The Maid
18 - The Hero
19 - The Surprise
20 - Mother-In-Law's Visit
21 - Foxy Grandma
22 - Fred's New Job
23 - The Blessed Event
24 - Carry On, Nurse Fred
25 - Ventriloquist Barney
26 - The Big Move
27 - Swedish Visitors
28 - The Birthday Party
4-й Сезон:
01 - Ann-Margrock Presents
02 - Gloom Groom
03 - Little Bamm-Bamm
04 - Dino Disappears
05 - Fred's Monkeyshines
06 - The Flintstone Canaries
07 - Glue For Two
08 - Big League Freddie
09 - Old Lady Betty
10 - Sleep On, Sweet Fred
11 - Kleptomaniac Pebbles
12 - Daddy's Little Beauty
13 - Daddies Anonymous
14 - Peek-a-Boo Camera
15 - Once Upon a Coward
16 - Ten Little Flintstones
17 - Fred El Terrifico
18 - Flintstone Hillbillies
19 - Flintstone And The Lion
20 - Cave Scout Jamboree
21 - Room For Two
22 - Ladies' Night At The Lodge
23 - Reel Trouble
24 - Son Of Rockzilla
25 - Bachelor Daze
26 - Operation Switchover
5-й Сезон:
01 - Hop Happy
02 - Monster Fred
03 - Itty Biddy Freddy
04 - Pebbles' Birthday Party
05 - Bedrock Rodeo Round-Up
06 - Cinderella Stone
07 - A Haunted House Is Not a Home
08 - Dr. Sinister
09 - The Gruesomes
10 - The Most Beautiful Baby In Bedrock
11 - Dino And Juliet
12 - King For a Night
13 - Indianrockolis 500
14 - Adobe Dick
15 - Christmas Flintstone
16 - Fred's Flying Lesson
17 - Fred's Second Car
18 - Time Machine
19 - The Hatrocks And The Gruesomes
20 - Moonlight And Maintenance
21 - Sheriff For a Day
22 - Deep in the Heart of Texarock
23 - The Rolls Rock Caper
24 - Superstone
25 - Fred Meets Hercurock
26 - Surfin' Fred
6-й Сезон:
01 - No Biz Like Show Biz
02 - The House That Fred Built
03 - The Return Of Stony Curtis
04 - Disorder In The Court
05 - Circus Business
06 - Samantha
07 - The Great Gazoo
08 - Rip Van Flintstone
09 - The Gravelberry Pie King
10 - The Stonefinger Caper
11 - The Masquerade Party
12 - Shinrock-A-Go-Go
13 - Royal Rubble
14 - Seeing Doubles
15 - How To Pick a Fight With Your Wife Without Really Trying
16 - Fred Goes Ape
17 - The Long, Long, Long Weekend
18 - Two Men On a Dinosaur
19 - The Treasure Of Sierra Madrock
20 - Curtain Call At Bedrock
21 - Boss For a Day
22 - Fred's Island
23 - Jealousy
24 - Dripper
25 - My Fair Freddy
26 - The Story Of Rocky's Raiders
picpicpicpic
Для увеличения картинки щелкните мышкой по превью

Этот торрент недоступен для скачивания без регистрации, однако доступен по публичной magnet-ссылке (источники с публичных трекеров). Перед использованием ссылки прочтите, пожалуйста Пользовательское соглашение, а также как можно дольше оставайтесь на раздаче! Для того, чтобы скачать сам торрент-файл (который видит больше источников), а также для того, чтобы поблагодарить релизера, вам необходимо зарегистрироваться. Если регистрироваться лень - вы можете также попробовать скачать релиз по нашим партнерским ссылкам ниже.

[underverse.su].t26201.torrent
Трекер: Зарегистрирован   [ 16.04.2013 12:12 ]  

Статус: проверено (by Печаль'ka at 16.04.2013 12:14)
Поблагодарили: пока никто не поблагодарил...
Тип торрента: публичный - доступные источники с открытых трекеров: 
Размер: 24,94 GB (занимает 5,7 DVDR, для записи нужно 6 болванок DVDR/RW)
 
 

Яндекс.Метрика powered by Sphinx


В Н И М А Н И Е
Сайт не распространяет и не хранит электронные версии произведений, а лишь бесплатно и без коммерческой выгоды (не требуя взамен платы,
SMS и т.д.) предоставляет доступ к создаваемому пользователями каталогу ссылок на торрент-файлы, которые содержат только списки хеш-сумм.
Убедительная просьба с жалобами обращаться напрямую к пользователю, разместившему торрент файл.

Вверх