Loading...
Error

Операция «Кукловод» / Серии: 1-32 (32) (Карен Захаров) [2013, Детектив , SATRip]

Статистика раздачи
Размер:  15,64 GB   |    Зарегистрирован:  3 года 7 месяцев   |    Скачан:  14 раз

Полного источника не было: 2 года

Сидов:  0  |  0 KB/s  ]   Личеров:  0  |  0 KB/s  ]

* - сиды/пиры с внешних источников

   
 
Автор Сообщение

nemos Пол:Муж

16-Апр-2013 08:10

Операция «Кукловод»

Год выпуска: 2013
Жанр: Детектив
Страна: Россия
Режиссер: Карен Захаров
В ролях: Анастасия Панина, Владимир Яглыч, Денис Варенов, Евгения Чиркова, Андрей Москвичев, Ирина Баринова, Александр Никольский, Андрей Муравьёв, Татьяна Косач-Брындина, Александр Сергеев
Сюжет фильма:
Герой сериала — Иван Королёв, майор оперативной службы ФСБ, при проведении операции по захвату оружейного барона попадает с группой в засаду. Получив тяжелое ранение, Королёв «уходит» на более спокойную работу — в спецотдел, занимающийся в основном аналитическими разработками. Но на самом деле спокойной жизни не будет. Королёв с новыми коллегами оказывается в самой гуще событий, вызванных многоходовой комбинацией давнего врага России Перецкого…


Качество видео: SatRip

Продолжительность: 00:42:37 серия
Формат: AVI
Видео: XviD, 720x384, 1501 kbps
Аудио: русский, MP3 2.0, 128 kbps

Код:

F:\С underverse-3 Фильмы\Operazija.Kuklovod.2013.SATRip\Operazij.Kuklowod.(01.serija).2013.XviD.SATRip.avi
   General
      Complete name : F:\С underverse-3 Фильмы\Operazija.Kuklovod.2013.SATRip\Operazij.Kuklowod.(01.serija).2013.XviD.SATRip.avi
      Format : AVI
      Format/Info : Audio Video Interleave
      File size : 500 MiB
      Duration : 42mn 37s
      Overall bit rate : 1 639 Kbps
      Writing application : VirtualDubMod 1.5.10.2 (build 2540/release)
      Writing library : VirtualDubMod build 2540/release
   Video #0
      ID : 0
      Format : MPEG-4 Visual
      Format profile : Simple@L3
      Format settings, BVOP : No
      Format settings, QPel : No
      Format settings, GMC : No warppoints
      Format settings, Matrix : Default (H.263)
      Codec ID : XVID
      Codec ID/Hint : XviD
      Duration : 42mn 37s
      Bit rate : 1 501 Kbps
      Width : 720 pixels
      Height : 384 pixels
      Display aspect ratio : 1.85:1
      Frame rate : 25.000 fps
      Color space : YUV
      Chroma subsampling : 4:2:0
      Bit depth : 8 bits
      Scan type : Progressive
      Compression mode : Lossy
      Bits/(Pixel*Frame) : 0.217
      Stream size : 458 MiB (92%)
      Writing library : XviD 1.1.2 (UTC 2006-11-01)
   Audio #1
      ID : 1
      Format : MPEG Audio
      Format version : Version 1
      Format profile : Layer 3
      Mode : Joint stereo
      Mode extension : MS Stereo
      Codec ID : 55
      Codec ID/Hint : MP3
      Duration : 42mn 37s
      Bit rate mode : Constant
      Bit rate : 128 Kbps
      Channel(s) : 2 channels
      Sampling rate : 48.0 KHz
      Compression mode : Lossy
      Stream size : 39.0 MiB (8%)
      Alignment : Split accross interleaves
      Interleave, duration : 40 ms (1.00 video frame)
      Interleave, preload duration : 500 ms
      Writing library : LAME3.98
Семпл: http://multi-up.com/855211

Релиз группы:

picpicpicpicpicpicpicpicpicpicpicpicpicpicpicpicpicpicpic
Для увеличения картинки щелкните мышкой по превью
Сериал который был выложен и зарегистрирован более двух месяцев назад буду раздавать с 23.00ч до 06.00ч утра ( вина в этом не моя, а пользователей которые не поддерживают раздачу)

Этот торрент недоступен для скачивания без регистрации, однако доступен по публичной magnet-ссылке (источники с публичных трекеров). Перед использованием ссылки прочтите, пожалуйста Пользовательское соглашение, а также как можно дольше оставайтесь на раздаче! Для того, чтобы скачать сам торрент-файл (который видит больше источников), а также для того, чтобы поблагодарить релизера, вам необходимо зарегистрироваться. Если регистрироваться лень - вы можете также попробовать скачать релиз по нашим партнерским ссылкам ниже.

[underverse.su].t27351.torrent
Трекер: Зарегистрирован   [ 09.05.2013 16:59 ]  

Статус: проверено (by Чертёнок at 09.05.2013 18:03)
Поблагодарили: 2 человека
Тип торрента: публичный - доступные источники с открытых трекеров: 
Размер: 15,64 GB (занимает 3,57 DVDR, для записи нужно 4 болванки DVDR/RW)
 
 
Похожие темы
Форум Тема Автор Торрент Отв. Посл. сооб.
# Зарубежное кино [DVDRip, Low-Res HDRip, и т.д.] Операция «Арго» / Argo (Бен Аффлек) [2012 г., Триллер, драма, биография, HDRip] Dub 90ytr90
78 | 4

0 | 2102

351

03.02.2013 11:46

Зарубежное кино [DVDRip, Low-Res HDRip, и т.д.] Операция «Арго» / Argo [Extended Cut] (Бен Аффлек / Ben Affleck) [2012 г., триллер, драма, история, BDRip] AVO (Ю.Сербин) 90ytr90
5 | 2

0 | 1125

41

21.03.2013 19:33

T Зарубежное кино [DVDRip, Low-Res HDRip, и т.д.] Операция «Хромит» / In-cheon sang-ryuk jak-jeon (Джон Х. Ли / John H. Lee) [2016 г., боевик, драма, военный, история, WEBRip] MVO (КОЛОБОК) 90ytr90
463 | 10

0 | 221

14

08.11.2016 10:15

Зарубежное кино [DVDRip, Low-Res HDRip, и т.д.] Операция «Мертвый снег» 2 / Dod Sno 2 (Томми Виркола) [2014 г., ужасы, боевик, комедия, HDRip] DVO [DeadSno & den904] Паукан
0 | 0

0 | 1480

37

07.07.2014 07:36

Зарубежное кино [DVDRip, Low-Res HDRip, и т.д.] Операция «Мертвый снег» 2 / Dod Sno 2 (Томми Виркола / Tommy Wirkola) [2014 г., ужасы, боевик, комедия, HDRip] MVO 90ytr90
1 | 0

0 | 646

18

13.08.2014 08:02

Зарубежное кино [DVDRip, Low-Res HDRip, и т.д.] Операция «Возмездие» / Operation Rogue (Брайан Клайд / Brian Clyde) [2014 г., боевик, WEB-DLRip] MVO 90ytr90
4 | 2

0 | 406

12

23.09.2014 05:24

Кино СССР Операция «Ы» и другие приключения Шурика (Леонид Гайдай) [1965 г., мелодрама, комедия, криминал, BDRip] Gaarochi
56 | 0

4 | 1084

23

18.05.2013 14:03

Кино СССР Операция «Ы» и другие приключения Шурика (Леонид Гайдай) [1965 г., комедия, мелодрама, криминал, HDRip] vester78
1 | 0

0 | 861

23

24.02.2014 18:37

Зарубежное кино HQ Операция «Арго» / Argo (Бен Аффлек) [2012 г., триллер, драма, история, BDRip] Dub HQ Underverse HQ Underverse
0 | 0

8 | 12130

1026

17.04.2013 16:43

Другие фильмы Операция «ГКЧП» [2016 г., документальный, история, SatRip] ARI71
5 | 0

0 | 348

2

16.08.2016 11:45



Последний раз редактировалось: nemos (06.11.2014 05:18), всего редактировалось 17 раз(а)

nemos Пол:Муж

18-Апр-2013 06:42

Обновлена (1-30)

Яндекс.Метрика powered by Sphinx


В Н И М А Н И Е
Сайт не распространяет и не хранит электронные версии произведений, а лишь бесплатно и без коммерческой выгоды (не требуя взамен платы,
SMS и т.д.) предоставляет доступ к создаваемому пользователями каталогу ссылок на торрент-файлы, которые содержат только списки хеш-сумм.
Убедительная просьба с жалобами обращаться напрямую к пользователю, разместившему торрент файл.

Вверх