Loading...
Error

Мой партнёр / My PS Partner (Sung-hyun Byun) [2012 г., мелодрама, комедия, HDRip] DVO

Статистика раздачи
Размер:  1,33 GB   |    Зарегистрирован:  3 года 7 месяцев   |    Скачан:  6 раз

Полного источника не было: 2 года 7 месяцев

Сидов:  0  |  0 KB/s  ]   Личеров:  0  |  0 KB/s  ]

* - сиды/пиры с внешних источников

   
 
Автор Сообщение

RG NewCinema 

15-Апр-2013 09:33

Мой партнёр / My PS Partner


Название: Мой партнёр
Оригинальное название: My PS Partner
Год выхода: 2012
Жанр: мелодрама, комедия
Режиссер: Sung-hyun Byun

В ролях: Чи Сон, Ким А Чжун, Син Со Ёл, Kang Kyeong-Joon, Ким Сон О
О фильме:
Хён-Сон все еще тоскует по своей бывшей девушке. Ему становится еще хуже, когда он узнает, что в ее жизни появился новый красивый парень. Для Хён-Сона начались одинокие бессонные ночи, пока в одну из таких ночей он не получил странный телефонный звонок… Юн-Чжон ждет от своего парня предложения руки и сердца вот уже пять лет. И в один прекрасный день она решает привлечь его внимание и подтолкнуть на этот шаг. Способ для этого она выбрала весьма оригинальный. Ни разу не попробовав заниматься сексом по телефону, она звонит своему парню и, задумав удивить его, начинает свой «дебютный выход». Только тот, кто находится на другом конце линии, не ее парень…

Страна: Южная Корея
Продолжительность: 01:54:23
Перевод: Любительский двухголосый
Качество: HDRip
Видео: XviD, 1461 Кбит/с, 720x304
Звук: Русский (AC3, 2 ch, 192 Кбит/с)

Код:

Общее
Полное имя                               : My.PS.Partner.2012.L2.HDRip-Bi6f00t.avi
Формат                                   : AVI
Формат/Информация                        : Audio Video Interleave
Размер файла                             : 1,33 Гбайт
Продолжительность                        : 1 ч. 54 м.
Общий поток                              : 1662 Кбит/сек
Программа кодирования                    : VirtualDubMod 1.5.10.3 | www.virtualdub-fr.org || (build 2550/release)
Библиотека кодирования                   : VirtualDubMod build 2550/release

Видео
Идентификатор                            : 0
Формат                                   : MPEG-4 Visual
Профиль формата                          : Advanced Simple@L5
Параметр BVOP формата                    : 2
Параметр QPel формата                    : Нет
Параметр GMC формата                     : Без точки перехода
Параметр матрицы формата                 : Выборочная
Идентификатор кодека                     : XVID
Идентификатор кодека/Подсказка           : XviD
Продолжительность                        : 1 ч. 54 м.
Битрейт                                  : 1461 Кбит/сек
Ширина                                   : 720 пикселей
Высота                                   : 304 пикселя
Соотношение сторон                       : 2,35:1
Частота кадров                           : 24,000 кадра/сек
Цветовое пространство                    : YUV
Субдискретизация насыщенности            : 4:2:0
Битовая глубина                          : 8 бит
Тип развёртки                            : Прогрессивная
Метод сжатия                             : С потерями
Бит/(Пиксели*Кадры)                      : 0.278
Размер потока                            : 1,17 Гбайт (88%)
Библиотека кодирования                   : XviD 65

Аудио
Идентификатор                            : 1
Формат                                   : AC-3
Формат/Информация                        : Audio Coding 3
Расширение режима                        : CM (complete main)
Параметр Endianness формата              : Big
Идентификатор кодека                     : 2000
Продолжительность                        : 1 ч. 54 м.
Вид битрейта                             : Постоянный
Битрейт                                  : 192 Кбит/сек
Каналы                                   : 2 канала
Расположение каналов                     : Front: L R
Частота                                  : 48,0 КГц
Битовая глубина                          : 16 бит
Метод сжатия                             : С потерями
Размер потока                            : 157 Мбайт (12%)
Выравнивание                             : Разделение по промежуткам
Продолжительность промежутка             : 42  мс. (1,00 видеокадр)
Время предзагрузки промежутка            : 500  мс.
pic pic pic
Для увеличения картинки щелкните мышкой по превью

Этот торрент недоступен для скачивания без регистрации, однако доступен по публичной magnet-ссылке (источники с публичных трекеров). Перед использованием ссылки прочтите, пожалуйста Пользовательское соглашение, а также как можно дольше оставайтесь на раздаче! Для того, чтобы скачать сам торрент-файл (который видит больше источников), а также для того, чтобы поблагодарить релизера, вам необходимо зарегистрироваться. Если регистрироваться лень - вы можете также попробовать скачать релиз по нашим партнерским ссылкам ниже.

[underverse.su].t26167.torrent
Трекер: Зарегистрирован   [ 15.04.2013 09:33 ]  

Статус: проверено (by Чертёнок at 15.04.2013 18:11)
Поблагодарили: пока никто не поблагодарил...
Тип торрента: публичный - доступные источники с открытых трекеров: 
Размер: 1,33 GB (занимает 0,3 DVDR, для записи нужно 1 болванка DVDR/RW)
 
 

Яндекс.Метрика powered by Sphinx


В Н И М А Н И Е
Сайт не распространяет и не хранит электронные версии произведений, а лишь бесплатно и без коммерческой выгоды (не требуя взамен платы,
SMS и т.д.) предоставляет доступ к создаваемому пользователями каталогу ссылок на торрент-файлы, которые содержат только списки хеш-сумм.
Убедительная просьба с жалобами обращаться напрямую к пользователю, разместившему торрент файл.

Вверх