Loading...
Error

Точка опоры. Юбилей Михаила Ножкина [2012 г., документальный, TVRip]

Статистика раздачи
Размер:  798 MB   |    Зарегистрирован:  3 года 7 месяцев   |    Скачан:  1 раз
Сидов:  1  |  0 KB/s  ]   Личеров:  0  |  0 KB/s  ]

* - сиды/пиры с внешних источников

   
 
Автор Сообщение

матроскин Пол:Муж

12-Апр-2013 16:00

Точка опоры. Юбилей Михаила Ножкина


Год выпуска: 2012
Жанр: документальный
Страна: Россия
Выпущено: ТВ Центр
Участвуют: Василий Лановой, Юрий Соломин, Александр Михайлов, Людмила Швецова, Валерий Ганичев, Сергей Лебедев, Анатолий Куликов, Николай Соловцов, Геннадий Зюганов
Описание:
Народному артисту России Михаилу Ножкину исполнилось 75. Этому событию был посвящен юбилейный творческий вечер "Точка опоры" в Колонном зале Дома Союзов. Самым большим подарком для виновника торжества стал выход его двухтомника, который ему преподнесли перед концертом. А самым неожиданным оказалось награждение юбиляра Орденом Святого Преподобного Сергия Радонежского II степени. Президент Белоруссии Александр Лукашенко прислал поздравительную телеграмму, которую зачитали прямо в зале. Сам виновник торжества спел 12 своих песен и прочел несколько стихотворений.
Качество видео: TVRip

Продолжительность: 01:04:57
Формат: avi
Видео: XviD, 704x528, 1514 kbps
Аудио: русский, оригинал, MP3 2.0, 192 kbps

Код:

General
Complete name                    : C:\Users\Security\Videos\Мамонов\Tochka.opory..avi
Format                           : AVI
Format/Info                      : Audio Video Interleave
File size                        : 798 MiB
Duration                         : 1h 4mn
Overall bit rate                 : 1 717 Kbps
Writing application              : VirtualDubMod 1.5.10.3 | www.virtualdub-fr.org || (build 2550/release)
Writing library                  : VirtualDubMod build 2550/release

Video
ID                               : 0
Format                           : MPEG-4 Visual
Format profile                   : Streaming Video@L1
Format settings, BVOP            : Yes
Format settings, QPel            : No
Format settings, GMC             : No warppoints
Format settings, Matrix          : Default (H.263)
Codec ID                         : XVID
Codec ID/Hint                    : XviD
Duration                         : 1h 4mn
Bit rate                         : 1 515 Kbps
Width                            : 704 pixels
Height                           : 528 pixels
Display aspect ratio             : 4/3
Frame rate                       : 25.000 fps
Resolution                       : 24 bits
Colorimetry                      : 4:2:0
Scan type                        : Progressive
Bits/(Pixel*Frame)               : 0.163
Stream size                      : 704 MiB (88%)
Writing library                  : XviD 1.2.1 (UTC 2008-12-04)

Audio
ID                               : 1
Format                           : MPEG Audio
Format version                   : Version 1
Format profile                   : Layer 3
Codec ID                         : 55
Codec ID/Hint                    : MP3
Duration                         : 1h 4mn
Bit rate mode                    : Constant
Bit rate                         : 192 Kbps
Channel(s)                       : 2 channels
Sampling rate                    : 48.0 KHz
Resolution                       : 16 bits
Stream size                      : 89.2 MiB (11%)
Alignment                        : Aligned on interleaves
Interleave, duration             : 40 ms (1.00 video frame)
Interleave, preload duration     : 504 ms
Writing library                  : LAME3.98r
Encoding settings                : -m j -V 4 -q 2 -lowpass 18.6 -b 192

picpicpicpicpic
Для увеличения картинки щелкните мышкой по превью

Этот торрент недоступен для скачивания без регистрации, однако доступен по публичной magnet-ссылке (источники с публичных трекеров). Перед использованием ссылки прочтите, пожалуйста Пользовательское соглашение, а также как можно дольше оставайтесь на раздаче! Для того, чтобы скачать сам торрент-файл (который видит больше источников), а также для того, чтобы поблагодарить релизера, вам необходимо зарегистрироваться. Если регистрироваться лень - вы можете также попробовать скачать релиз по нашим партнерским ссылкам ниже.

[underverse.su].t26090.torrent
Трекер: Зарегистрирован   [ 12.04.2013 16:00 ]  

Статус: проверено (by Чертёнок at 12.04.2013 19:41)
Поблагодарили: пока никто не поблагодарил...
Тип торрента: публичный - доступные источники с открытых трекеров: 
Размер: 798 MB (занимает 0,18 DVDR, для записи нужно 1 болванка DVDR/RW)
 
 


Последний раз редактировалось: матроскин (12.04.2013 21:08), всего редактировалось 1 раз

матроскин Пол:Муж

12-Апр-2013 16:03


Яндекс.Метрика powered by Sphinx


В Н И М А Н И Е
Сайт не распространяет и не хранит электронные версии произведений, а лишь бесплатно и без коммерческой выгоды (не требуя взамен платы,
SMS и т.д.) предоставляет доступ к создаваемому пользователями каталогу ссылок на торрент-файлы, которые содержат только списки хеш-сумм.
Убедительная просьба с жалобами обращаться напрямую к пользователю, разместившему торрент файл.

Вверх