Loading...
Error

Чужой район 2 / Серии: 1-32 [32] (Максим Бриус) [2013 г., детектив, криминал, SatRip]

Статистика раздачи
Размер:  18,22 GB   |    Зарегистрирован:  3 года 7 месяцев   |    Скачан:  14 раз

Полного источника не было: 5 месяцев 5 дней

Сидов:  0  |  0 KB/s  ]   Личеров:  0  |  0 KB/s  ]

* - сиды/пиры с внешних источников

   
 
Автор Сообщение

nemos Пол:Муж

12-Апр-2013 15:53

Чужой район 2


Год выпуска: 2013
Жанр: Детектив, криминал
Страна: Россия
Режиссер: Максим Бриус
В ролях: Денис Рожков, Кирилл Полухин, Игорь Головин, Зоя Буряк, Сергей Колос, Екатерина Проскурина, Юрий Архангельский, Алексей Нилов, Вячеслав Аркунов, Алексей Одинг, Оксана Скакун, Сергей Черапкин, Вадим Лымарь, Александр Стекольников, Сергей Рублёв, Елена Лопаткина, Геннадий Макоев, Дмитрий Белов, Сергей Малюгов, Инна Корнышева, Ринат Муталлапов, Артур Федынко, Павел Гончаров
Сюжет фильма:
После безупречной службы в должности инспектора полиции на окраине города Фролов готовится к триумфальному возвращению в центральный район, откуда его несправедливо изгнали. Но просто так отпустить друга не готов его напарник Свистунов. В прощальный вечер друзья решили немного покуролесить: начали с «очень вкусного самогона», потом устроили драку в ночном клубе, угнали трамвай и где-то посеяли служебное удостоверение Андрея. Утром, после разговора с начальством, Фролов понял: долгожданное повышение откладывается до лучших времен…


Качество видео: SatRip

Продолжительность: 00:44:53серия
Формат: AVI
Видео: XviD, 720х384, 1645kbps
Аудио: русский, MP3 2.0, 128 kbps

Код:

F:\С underverse-3 Фильмы\Чужой район-2\Чужой район-2_01.avi
   General
      Complete name : F:\С underverse-3 Фильмы\Чужой район-2\Чужой район-2_01.avi
      Format : AVI
      Format/Info : Audio Video Interleave
      File size : 573 MiB
      Duration : 44mn 53s
      Overall bit rate : 1 783 Kbps
      Writing library : VirtualDub build 32507/release
   Video #0
      ID : 0
      Format : MPEG-4 Visual
      Format profile : Advanced Simple@L5
      Format settings, BVOP : 2
      Format settings, QPel : No
      Format settings, GMC : No warppoints
      Format settings, Matrix : Default (H.263)
      Muxing mode : Packed bitstream
      Codec ID : XVID
      Codec ID/Hint : XviD
      Duration : 44mn 53s
      Bit rate : 1 645 Kbps
      Width : 720 pixels
      Height : 384 pixels
      Display aspect ratio : 1.85:1
      Frame rate : 25.000 fps
      Color space : YUV
      Chroma subsampling : 4:2:0
      Bit depth : 8 bits
      Scan type : Progressive
      Compression mode : Lossy
      Bits/(Pixel*Frame) : 0.238
      Stream size : 528 MiB (92%)
      Writing library : XviD 64
   Audio #1
      ID : 1
      Format : MPEG Audio
      Format version : Version 1
      Format profile : Layer 3
      Mode : Joint stereo
      Mode extension : MS Stereo
      Codec ID : 55
      Codec ID/Hint : MP3
      Duration : 44mn 53s
      Bit rate mode : Constant
      Bit rate : 128 Kbps
      Channel(s) : 2 channels
      Sampling rate : 48.0 KHz
      Compression mode : Lossy
      Delay relative to video : 8ms
      Stream size : 41.1 MiB (7%)
      Alignment : Split accross interleaves
      Interleave, duration : 40 ms (1.00 video frame)
      Interleave, preload duration : 500 ms
Семпл: http://multi-up.com/853672

picpicpicpicpicpicpicpicpicpicpicpicpicpic
Для увеличения картинки щелкните мышкой по превью
Сериал который был выложен и зарегистрирован более двух месяцев назад буду раздавать с 23.00ч до 06.00ч утра ( вина в этом не моя, а пользователей которые не поддерживают раздачу)

Этот торрент недоступен для скачивания без регистрации, однако доступен по публичной magnet-ссылке (источники с публичных трекеров). Перед использованием ссылки прочтите, пожалуйста Пользовательское соглашение, а также как можно дольше оставайтесь на раздаче! Для того, чтобы скачать сам торрент-файл (который видит больше источников), а также для того, чтобы поблагодарить релизера, вам необходимо зарегистрироваться. Если регистрироваться лень - вы можете также попробовать скачать релиз по нашим партнерским ссылкам ниже.

[underverse.su].t26886.torrent
Трекер: Зарегистрирован   [ 30.04.2013 13:59 ]  

Статус: проверено (by Печаль'ka at 30.04.2013 14:01)
Поблагодарили: 7 человек
Тип торрента: публичный - доступные источники с открытых трекеров: 
Размер: 18,22 GB (занимает 4,16 DVDR, для записи нужно 5 болванок DVDR/RW)
 
 
Похожие темы
Форум Тема Автор Торрент Отв. Посл. сооб.
xUSSR сериалы Чужой район / Серии: 1-24 [24] (Андрей Коршунов, Максим Бриус) [2012 г., детектив, криминал, SatRip] nemos
25 | 9

0 | 800

20

12.04.2013 15:29

xUSSR сериалы Чужой район 2 [01-32 из 32] (Максим Бриус) [2012 г., детектив, криминал, DVB] TERRAN
12 | 2

0 | 391

5

01.05.2013 18:09

xUSSR сериалы Чужой район 3 (1-32 серии из 32) (Игорь Драка, Дмитрий Аверин, Богдан Дробязко) [2014 г., детектив, криминал, SatRip] nemos
16 | 2

1 | 561

7

15.04.2014 19:08



Последний раз редактировалось: nemos (06.11.2014 05:16), всего редактировалось 4 раз(а)

nemos Пол:Муж

26-Апр-2013 15:24

Торрент обновлен (32)

Яндекс.Метрика powered by Sphinx


В Н И М А Н И Е
Сайт не распространяет и не хранит электронные версии произведений, а лишь бесплатно и без коммерческой выгоды (не требуя взамен платы,
SMS и т.д.) предоставляет доступ к создаваемому пользователями каталогу ссылок на торрент-файлы, которые содержат только списки хеш-сумм.
Убедительная просьба с жалобами обращаться напрямую к пользователю, разместившему торрент файл.

Вверх