Loading...
Error

Разговор со страной. Ножкин М.И. [2013 г., документальный, TVRip]

Статистика раздачи
Размер:  1,49 GB   |    Зарегистрирован:  3 года 7 месяцев   |    Скачан:  3 раза

Полного источника не было: 23 часа

Сидов:  0  |  0 KB/s  ]   Личеров:  0  |  0 KB/s  ]

* - сиды/пиры с внешних источников

   
 
Автор Сообщение

матроскин Пол:Муж

12-Апр-2013 15:35

Разговор со страной. Ножкин М.И.


Год выпуска: 2013
Жанр: документальный
Страна: Россия
Режиссер: Выпущено: ТВ
Сюжет фильма:
Телезрители канала Рассвет ТВ задают вопросы Народному артисту СССР Михаилу Ивановичу Ножкину.
Качество видео: TVRip

Продолжительность: 01:39:43
Формат: avi
Видео: DivX 4, 854x480, 736 kbps
Аудио: русский, оригинал, MP3 2.0, 256 kbps

Код:

General
Complete name                    : C:\Users\Security\Videos\Мамонов\Разговор со страной  М. И. Ножкин.avi
Format                           : AVI
Format/Info                      : Audio Video Interleave
Format profile                   : OpenDML
File size                        : 1.49 GiB
Duration                         : 4h 12mn
Overall bit rate                 : 843 Kbps
Writing application              : Lavf52.93.0

Video
ID                               : 0
Format                           : MPEG-4 Visual
Format profile                   : Simple@L1
Format settings, BVOP            : No
Format settings, QPel            : No
Format settings, GMC             : No warppoints
Format settings, Matrix          : Default (H.263)
Codec ID                         : DIVX
Codec ID/Info                    : Project Mayo
Codec ID/Hint                    : DivX 4
Duration                         : 4h 12mn
Bit rate                         : 736 Kbps
Width                            : 854 pixels
Height                           : 480 pixels
Display aspect ratio             : 16/9
Frame rate                       : 25.000 fps
Resolution                       : 24 bits
Colorimetry                      : 4:2:0
Scan type                        : Progressive
Bits/(Pixel*Frame)               : 0.072
Stream size                      : 1.30 GiB (87%)
Writing library                  : Lavc52.108.0

Audio
ID                               : 1
Format                           : MPEG Audio
Format version                   : Version 1
Format profile                   : Layer 3
Codec ID                         : 55
Codec ID/Hint                    : MP3
Duration                         : 1h 39mn
Bit rate mode                    : Constant
Bit rate                         : 256 Kbps
Channel(s)                       : 2 channels
Sampling rate                    : 44.1 KHz
Resolution                       : 16 bits
Stream size                      : 183 MiB (12%)
Alignment                        : Aligned on interleaves
Interleave, duration             : 26 ms (0.65 video frame)
Writing library                  : LAME3.98.4

picpicpicpicpicpic
Для увеличения картинки щелкните мышкой по превью

Этот торрент недоступен для скачивания без регистрации, однако доступен по публичной magnet-ссылке (источники с публичных трекеров). Перед использованием ссылки прочтите, пожалуйста Пользовательское соглашение, а также как можно дольше оставайтесь на раздаче! Для того, чтобы скачать сам торрент-файл (который видит больше источников), а также для того, чтобы поблагодарить релизера, вам необходимо зарегистрироваться. Если регистрироваться лень - вы можете также попробовать скачать релиз по нашим партнерским ссылкам ниже.

[underverse.su].t26088.torrent
Трекер: Зарегистрирован   [ 12.04.2013 15:35 ]  

Статус: проверено (by Чертёнок at 12.04.2013 19:29)
Поблагодарили: 1 человек
Тип торрента: публичный - доступные источники с открытых трекеров: 
Размер: 1,49 GB (занимает 0,34 DVDR, для записи нужно 1 болванка DVDR/RW)
 
 

матроскин Пол:Муж

12-Апр-2013 15:39

Качайте и смотрите документальные фильмы!

.

Яндекс.Метрика powered by Sphinx


В Н И М А Н И Е
Сайт не распространяет и не хранит электронные версии произведений, а лишь бесплатно и без коммерческой выгоды (не требуя взамен платы,
SMS и т.д.) предоставляет доступ к создаваемому пользователями каталогу ссылок на торрент-файлы, которые содержат только списки хеш-сумм.
Убедительная просьба с жалобами обращаться напрямую к пользователю, разместившему торрент файл.

Вверх