Loading...
Error

Чужой район / Серии: 1-24 [24] (Андрей Коршунов, Максим Бриус) [2012 г., детектив, криминал, SatRip]

Статистика раздачи
Размер:  11,75 GB   |    Зарегистрирован:  3 года 7 месяцев   |    Скачан:  20 раз

Полного источника не было: 11 месяцев

Сидов:  0  |  0 KB/s  ]   Личеров:  0  |  0 KB/s  ]

* - сиды/пиры с внешних источников

   
 
Автор Сообщение

nemos Пол:Муж

12-Апр-2013 15:29

Чужой район


Год выпуска: 2012
Жанр: Криминал, детектив
Страна: Россия
Режиссер: Андрей Коршунов, Максим Бриус
В ролях: Денис Рожков, Вячеслав Аркунов, Сергей Колос, Зоя Буряк, Евгений Леонов-Гладышев, Екатерина Проскурина, Игорь Головин (II), Даниил Кокин, Алексей Лысенко, Юрий Архангельский, Михаил Сидаш, Егор Бакулин, Владимир Галась, Денис Кириллов, Яна Чигир, Алексей Нилов, Марианна Маркина, Александр Иванов (XIV), Мира Мордасова, Сергей Черапкин, Игорь Лепихин
Сюжет фильма:
Сотрудник уголовного розыска Андрей Фролов после того, как он обезвредил преступника, который оказался внуком влиятельного лица, вынужден оставить работу опера. Но временно, как ему обещали.
Андрей переводится в участковые, и, по чьей-то «злой воле», ему доверяют самый сложный в криминальном плане район под названием «МОЛОТ» (Красный Молот). Это микрорайон на окраине Мегаполиса, бывший рабочий посёлок имени Красных Молотобойцев. До ближайшего метро 15 минут маршруткой, которая ходит «раз в год по обещанию»… Микрорайон с типичными «прелестями» спально-рабочих городских окраин. Здесь свои законы, каждый сам себе защитник. По сути, районом управляет Авторитет (здесь закон – это он). Жизнь в районе сурова, но в большинстве своём, его жители, несмотря на непритязательность и простоту, оказываются «правильными», «настоящими».
В районе Фролову не очень-то и рады. Местный участковый Свистунов, новый коллега Фролова, всячески пытается выслужиться за счет нового напарника, местные бандиты всячески хотят заставить Фролова работать на них. Единственное, что остаётся Андрею, - честно нести службу и ждать обещанного перевода назад в свой отдел, вновь на оперативную работу. Но, как известно, обещанного 3 года ждут. А за это время ему не раз придётся решать проблемы жителей Молота, оказываясь как в комичных, так и в опасных для жизни ситуациях.


Качество видео: SatRip

Продолжительность: 00.46.54серия
Формат: AVI
Видео: XviD, 704x384, 1 357 kbps
Аудио: русский, MP3 2.0, 128 kbps

Код:

F:\С underverse-3 Фильмы\Чужой район\Чужой район.24.avi
   General
      Complete name : F:\С underverse-3 Фильмы\Чужой район\Чужой район.24.avi
      Format : AVI
      Format/Info : Audio Video Interleave
      File size : 502 MiB
      Duration : 46mn 54s
      Overall bit rate : 1 495 Kbps
      Writing application : VirtualDubMod 1.5.10.3 | www.virtualdub-fr.org || (build 2550/release)
      Writing library : VirtualDubMod build 2550/release
   Video #0
      ID : 0
      Format : MPEG-4 Visual
      Format profile : Advanced Simple@L5
      Format settings, BVOP : 2
      Format settings, QPel : No
      Format settings, GMC : No warppoints
      Format settings, Matrix : Default (MPEG)
      Codec ID : XVID
      Codec ID/Hint : XviD
      Duration : 46mn 54s
      Bit rate : 1 357 Kbps
      Width : 704 pixels
      Height : 384 pixels
      Display aspect ratio : 1.85:1
      Frame rate : 25.000 fps
      Color space : YUV
      Chroma subsampling : 4:2:0
      Bit depth : 8 bits
      Scan type : Progressive
      Compression mode : Lossy
      Bits/(Pixel*Frame) : 0.201
      Stream size : 455 MiB (91%)
      Writing library : XviD 64
   Audio #1
      ID : 1
      Format : MPEG Audio
      Format version : Version 1
      Format profile : Layer 3
      Codec ID : 55
      Codec ID/Hint : MP3
      Duration : 46mn 54s
      Bit rate mode : Constant
      Bit rate : 128 Kbps
      Channel(s) : 2 channels
      Sampling rate : 48.0 KHz
      Compression mode : Lossy
      Stream size : 43.0 MiB (9%)
      Alignment : Aligned on interleaves
      Interleave, duration : 40 ms (1.00 video frame)
      Interleave, preload duration : 504 ms
      Writing library : LAME3.98r
      Encoding settings : -m s -V 4 -q 2 -lowpass 17 -b 128
Семпл: http://multi-up.com/853662

picpicpicpicpicpicpicpicpicpicpicpicpicpicpicpicpic
Для увеличения картинки щелкните мышкой по превью
Сериал который был выложен и зарегистрирован более двух месяцев назад буду раздавать с 23.00ч до 06.00ч утра ( вина в этом немоя, а пользователей которые неподдерживают раздачу)

Этот торрент недоступен для скачивания без регистрации, однако доступен по публичной magnet-ссылке (источники с публичных трекеров). Перед использованием ссылки прочтите, пожалуйста Пользовательское соглашение, а также как можно дольше оставайтесь на раздаче! Для того, чтобы скачать сам торрент-файл (который видит больше источников), а также для того, чтобы поблагодарить релизера, вам необходимо зарегистрироваться. Если регистрироваться лень - вы можете также попробовать скачать релиз по нашим партнерским ссылкам ниже.

[underverse.su].t26087.torrent
Трекер: Зарегистрирован   [ 12.04.2013 15:29 ]  

Статус: проверено (by TERRAN at 12.04.2013 17:53)
Поблагодарили: 3 человека
Тип торрента: публичный - доступные источники с открытых трекеров: 
Размер: 11,75 GB (занимает 2,68 DVDR, для записи нужно 3 болванки DVDR/RW)
 
 
Похожие темы
Форум Тема Автор Торрент Отв. Посл. сооб.
xUSSR сериалы Чужой район 2 / Серии: 1-32 [32] (Максим Бриус) [2013 г., детектив, криминал, SatRip] nemos
38 | 9

1 | 1926

14

26.04.2013 15:24

xUSSR сериалы Чужой район 2 [01-32 из 32] (Максим Бриус) [2012 г., детектив, криминал, DVB] TERRAN
12 | 2

0 | 389

5

01.05.2013 18:09

xUSSR сериалы Чужой район 3 (1-32 серии из 32) (Игорь Драка, Дмитрий Аверин, Богдан Дробязко) [2014 г., детектив, криминал, SatRip] nemos
16 | 2

1 | 560

7

15.04.2014 19:08


Яндекс.Метрика powered by Sphinx


В Н И М А Н И Е
Сайт не распространяет и не хранит электронные версии произведений, а лишь бесплатно и без коммерческой выгоды (не требуя взамен платы,
SMS и т.д.) предоставляет доступ к создаваемому пользователями каталогу ссылок на торрент-файлы, которые содержат только списки хеш-сумм.
Убедительная просьба с жалобами обращаться напрямую к пользователю, разместившему торрент файл.

Вверх