Loading...
Error

К нам приехал: Михаил Иванович Ножкин [2010 г., документальный, TVRip]

Статистика раздачи
Размер:  1,18 GB   |    Зарегистрирован:  3 года 7 месяцев   |    Скачан:  1 раз
Сидов:  1  |  0 KB/s  ]   Личеров:  0  |  0 KB/s  ]

* - сиды/пиры с внешних источников

   
 
Автор Сообщение

матроскин Пол:Муж

12-Апр-2013 15:23

К нам приехал: Михаил Иванович Ножкин


Год выпуска: 2010
Жанр: документальный
Страна: Россия
Выпущено: Телеканал Ля-минор ТВ
Сюжет фильма:
В студию Телеканала Ля-Минор был приглашен народный артист театра и кино Ножкин Михаил Иванович,который прочитал свои стихи и спел песни. Михаил Ивнович ответил на вопросы ведущий программы "Ля-Минор" Ксении Стриж.
Качество видео: TVRip

Продолжительность: 01:14:52
Формат: avi
Видео: xvid, 704x576, 786 kbps
Аудио: русский, оригинал, MP3 2.0, 256 kbps

Код:

General
Complete name                    : C:\Users\Security\Videos\Мамонов\Михаил Ножкин - К нам приехал... (8.05.2010).avi
Format                           : AVI
Format/Info                      : Audio Video Interleave
Format profile                   : OpenDML
File size                        : 1.18 GiB
Duration                         : 3h 9mn
Overall bit rate                 : 894 Kbps
Movie name                       : CVBS
Writing application              : Lavf52.93.0
Comment                          : Recorded from Behold TV v4.97

Video
Format                           : xvid
Codec ID                         : xvid
Duration                         : 3h 9mn
Bit rate                         : 787 Kbps
Width                            : 704 pixels
Height                           : 576 pixels
Display aspect ratio             : 1.222
Frame rate                       : 25.000 fps
Resolution                       : 24 bits
Bits/(Pixel*Frame)               : 0.078
Stream size                      : 1.04 GiB (88%)

Audio
ID                               : 1
Format                           : MPEG Audio
Format version                   : Version 1
Format profile                   : Layer 3
Codec ID                         : 55
Codec ID/Hint                    : MP3
Duration                         : 1h 14mn
Bit rate mode                    : Constant
Bit rate                         : 256 Kbps
Channel(s)                       : 2 channels
Sampling rate                    : 44.1 KHz
Resolution                       : 16 bits
Stream size                      : 137 MiB (11%)
Alignment                        : Aligned on interleaves
Interleave, duration             : 26 ms (0.65 video frame)
Interleave, preload duration     : 52 ms
Writing library                  : LAME3.98.4

picpicpicpicpic
Для увеличения картинки щелкните мышкой по превью

Этот торрент недоступен для скачивания без регистрации, однако доступен по публичной magnet-ссылке (источники с публичных трекеров). Перед использованием ссылки прочтите, пожалуйста Пользовательское соглашение, а также как можно дольше оставайтесь на раздаче! Для того, чтобы скачать сам торрент-файл (который видит больше источников), а также для того, чтобы поблагодарить релизера, вам необходимо зарегистрироваться. Если регистрироваться лень - вы можете также попробовать скачать релиз по нашим партнерским ссылкам ниже.

[underverse.su].t26086.torrent
Трекер: Зарегистрирован   [ 12.04.2013 15:23 ]  

Статус: проверено (by Чертёнок at 12.04.2013 19:29)
Поблагодарили: пока никто не поблагодарил...
Тип торрента: публичный - доступные источники с открытых трекеров: 
Размер: 1,18 GB (занимает 0,27 DVDR, для записи нужно 1 болванка DVDR/RW)
 
 


Последний раз редактировалось: матроскин (12.04.2013 15:27), всего редактировалось 1 раз

матроскин Пол:Муж

12-Апр-2013 15:26

Качайте и смотрите интересное документальное кино
.

матроскин Пол:Муж

12-Апр-2013 15:41

До сих пор мороз по коже у меня от слов в этой песне

ГЛЯДЯТ НА НАС ФРОНТОВИКИ

Музыка и слова Михаила Ножкина

Прошла война, ушла за поворот,
В чехлах стоят гвардейские знамена,
И жизнь, и время движутся вперёд,
Отстали только павших миллионы.

Остались в поле брани навсегда,
Легли живой дорогою Победы,
За нас легли, затем, чтоб никогда
Нам этой боли в жизни не изведать.

И память нам покоя не даёт,
И совесть нас с тобой частенько гложет,
И хоть сто лет, хоть тыща лет пройдёт -
Никто у нас войны забыть не сможет!..

А тех, кто жив, кто чудом уцелел,
Сегодня мы, как чудо, изучаем,
Но даже чуду, чуду есть предел, -
Все реже их на улицах встречаем.

Сквозь шторм свинца, сквозь ураган огня,
Сквозь смерть саму прошли, не зная брода,
Весь мир не может до сих пор понять -
Как их хватило на четыре года?!

Глядят на нас, глядят фронтовики,
Глядят на нас исчезнувшие роты,
Глядят на нас ушедшие полки,
Глядят на нас с надеждой и заботой -

Ну, как мы тут, и что у нас за жизнь,
Куда идём семьёю многоликой,
Готовы ль так же Родине служить,
Достойны ли Истории Великой?!

И память нам покоя не даёт,
И совесть нас с тобой частенько гложет,
И хоть сто лет, хоть тыща лет пройдёт,-
Никто у нас войны забыть не сможет!..

Яндекс.Метрика powered by Sphinx


В Н И М А Н И Е
Сайт не распространяет и не хранит электронные версии произведений, а лишь бесплатно и без коммерческой выгоды (не требуя взамен платы,
SMS и т.д.) предоставляет доступ к создаваемому пользователями каталогу ссылок на торрент-файлы, которые содержат только списки хеш-сумм.
Убедительная просьба с жалобами обращаться напрямую к пользователю, разместившему торрент файл.

Вверх