Loading...
Error

Памяти В.И. Илюхина посвящается. [2012 г., документальный, TVRip]

Статистика раздачи
Размер:  554 MB   |    Зарегистрирован:  3 года 7 месяцев   |    Скачан:  8 раз
Сидов:  1  |  0 KB/s  ]   Личеров:  0  |  0 KB/s  ]

* - сиды/пиры с внешних источников

   
 
Автор Сообщение

матроскин Пол:Муж

12-Апр-2013 13:21

Памяти В.И. Илюхина посвящается.


Год выпуска: 2012
Жанр: документальный
Страна: Россия
Выпущено: КПРФ-ТВ
Сюжет фильма:
В ночь с 19 на 20 марта 2011 года в Подмосковье на 63 году жизни скоропостижно скончался Главный обвинитель Путина на процессе военного трибунала Общероссийского офицерского собрания депутат Госдумы член ЦК КПРФ Виктор Иванович Илюхин. По официальной версии от острой сердечной недостаточности. Скорая помощь не успела доехать вовремя. Странная смерть, учитывая хорошую физическую форму В.И.Илюхина и оглашенные им планы продолжать деятельность общественного офицерского трибунала по делу Путина, разоблачение фальсификаций по Катынскому делу и вокруг пакта Молотова-Риббентропа.........
Качество видео: TVRip

Продолжительность: 00:29:35
Формат: avi
Видео: DivX 4, 800x480, 2352 kbps
Аудио: русский, оригинал, MP3 2.0, 256 kbps

Код:

General
Complete name                    : C:\Users\Security\Videos\Мамонов\Памяти Илюхина В.И. посвящается.avi
Format                           : AVI
Format/Info                      : Audio Video Interleave
File size                        : 554 MiB
Duration                         : 29mn 35s
Overall bit rate                 : 2 620 Kbps
Writing application              : Lavf52.93.0

Video
ID                               : 0
Format                           : MPEG-4 Visual
Format profile                   : Simple@L1
Format settings, BVOP            : No
Format settings, QPel            : No
Format settings, GMC             : No warppoints
Format settings, Matrix          : Default (H.263)
Codec ID                         : DIVX
Codec ID/Info                    : Project Mayo
Codec ID/Hint                    : DivX 4
Duration                         : 29mn 34s
Bit rate                         : 2 352 Kbps
Width                            : 800 pixels
Height                           : 480 pixels
Display aspect ratio             : 1.667
Frame rate                       : 25.000 fps
Resolution                       : 24 bits
Colorimetry                      : 4:2:0
Scan type                        : Progressive
Bits/(Pixel*Frame)               : 0.245
Stream size                      : 498 MiB (90%)
Writing library                  : Lavc52.108.0

Audio
ID                               : 1
Format                           : MPEG Audio
Format version                   : Version 1
Format profile                   : Layer 3
Codec ID                         : 55
Codec ID/Hint                    : MP3
Duration                         : 29mn 35s
Bit rate mode                    : Constant
Bit rate                         : 256 Kbps
Channel(s)                       : 2 channels
Sampling rate                    : 44.1 KHz
Resolution                       : 16 bits
Stream size                      : 54.2 MiB (10%)
Alignment                        : Aligned on interleaves
Interleave, duration             : 26 ms (0.65 video frame)
Writing library                  : LAME3.98.4

picpicpicpicpicpic
Для увеличения картинки щелкните мышкой по превью

Этот торрент недоступен для скачивания без регистрации, однако доступен по публичной magnet-ссылке (источники с публичных трекеров). Перед использованием ссылки прочтите, пожалуйста Пользовательское соглашение, а также как можно дольше оставайтесь на раздаче! Для того, чтобы скачать сам торрент-файл (который видит больше источников), а также для того, чтобы поблагодарить релизера, вам необходимо зарегистрироваться. Если регистрироваться лень - вы можете также попробовать скачать релиз по нашим партнерским ссылкам ниже.

[underverse.su].t26075.torrent
Трекер: Зарегистрирован   [ 12.04.2013 13:21 ]  

Статус: проверено (by Чертёнок at 12.04.2013 13:34)
Поблагодарили: пока никто не поблагодарил...
Тип торрента: публичный - доступные источники с открытых трекеров: 
Размер: 554 MB (занимает 0,12 DVDR, для записи нужно 1 болванка DVDR/RW)
 
 

матроскин Пол:Муж

12-Апр-2013 14:50

Качайте и смотрите интересное документальное кино

Яндекс.Метрика powered by Sphinx


В Н И М А Н И Е
Сайт не распространяет и не хранит электронные версии произведений, а лишь бесплатно и без коммерческой выгоды (не требуя взамен платы,
SMS и т.д.) предоставляет доступ к создаваемому пользователями каталогу ссылок на торрент-файлы, которые содержат только списки хеш-сумм.
Убедительная просьба с жалобами обращаться напрямую к пользователю, разместившему торрент файл.

Вверх