Loading...
Error

Космический корабль "Буран" [1980 г., документальный, исторический, TVRip]

Статистика раздачи
Размер:  326 MB   |    Зарегистрирован:  4 года 1 месяц   |    Скачан:  13 раз

Полного источника не было: 5 месяцев 3 дня

Сидов:  0  |  0 KB/s  ]   Личеров:  0  |  0 KB/s  ]

* - сиды/пиры с внешних источников

   
 
Автор Сообщение

матроскин Пол:Муж

12-Апр-2013 13:12

Космический корабль "Буран"


Год выпуска: 1980
Жанр: документальный, исторический
Страна: СССР
Режиссер: Вячеслав Осипов
Сюжет фильма:
В фильме рассказывается как создавался космический корабль мнгоразового использования "Буран",как собирался и проходил испытания
Качество видео: TVRip

Продолжительность: 00:19:41
Формат: avi
Видео: xvid, 720x576, 2043 kbps
Аудио: русский, оригинал, MP3 2.0, 256 kbps

Код:

General
Complete name                    : C:\Users\Security\Videos\Мамонов\Буран.avi
Format                           : AVI
Format/Info                      : Audio Video Interleave
File size                        : 326 MiB
Duration                         : 19mn 41s
Overall bit rate                 : 2 313 Kbps
Writing application              : Lavf52.93.0

Video
Format                           : xvid
Codec ID                         : xvid
Duration                         : 19mn 41s
Bit rate                         : 2 044 Kbps
Width                            : 720 pixels
Height                           : 576 pixels
Display aspect ratio             : 5/4
Frame rate                       : 29.920 fps
Standard                         : PAL
Resolution                       : 24 bits
Bits/(Pixel*Frame)               : 0.165
Stream size                      : 288 MiB (88%)

Audio
ID                               : 1
Format                           : MPEG Audio
Format version                   : Version 1
Format profile                   : Layer 3
Codec ID                         : 55
Codec ID/Hint                    : MP3
Duration                         : 19mn 41s
Bit rate mode                    : Constant
Bit rate                         : 256 Kbps
Channel(s)                       : 2 channels
Sampling rate                    : 44.1 KHz
Resolution                       : 16 bits
Stream size                      : 36.1 MiB (11%)
Alignment                        : Aligned on interleaves
Interleave, duration             : 26 ms (0.78 video frame)

picpicpicpicpicpic
Для увеличения картинки щелкните мышкой по превью

Этот торрент недоступен для скачивания без регистрации, однако доступен по публичной magnet-ссылке (источники с публичных трекеров). Перед использованием ссылки прочтите, пожалуйста Пользовательское соглашение, а также как можно дольше оставайтесь на раздаче! Для того, чтобы скачать сам торрент-файл (который видит больше источников), а также для того, чтобы поблагодарить релизера, вам необходимо зарегистрироваться. Если регистрироваться лень - вы можете также попробовать скачать релиз по нашим партнерским ссылкам ниже.

[underverse.su].t26073.torrent
Трекер: Зарегистрирован   [ 12.04.2013 13:12 ]  

Статус: проверено (by Чертёнок at 12.04.2013 13:58)
Поблагодарили: 2 человека
Тип торрента: публичный - доступные источники с открытых трекеров: 
Размер: 326 MB (занимает 0,07 DVDR, для записи нужно 1 болванка DVDR/RW)
 
 
Похожие темы
Форум Тема Автор Торрент Отв. Посл. сооб.
Зарубежное кино [DVDRip, Low-Res HDRip, и т.д.] Космические дальнобойщики / Space Truckers (Стюарт Гордон) [1996 г., фантастика, триллер, комедия, приключения, DVDRip-AVC] MVO + Original RG NewCinema
6 | 0

0 | 1204

33

08.04.2013 06:45

Зарубежное кино [DVDRip, Low-Res HDRip, и т.д.] Космические воины / Space Warriors (Шон МакНамара) [2013 г., семейный, HDRip] MVO Паукан
14 | 0

0 | 1703

49

25.07.2014 11:38

Зарубежное кино [DVDRip, Low-Res HDRip, и т.д.] Космические пираты: приключения Сайбер Рэйна / Star Raiders: The Adventures of Saber Raine (Марк Стивен Гроув / Mark Steven Grove) [2016 г., фантастика, приключения, WEB-DLRip] MVO (Синема УС) 90ytr90
83 | 1

0 | 286

14

12.03.2017 17:48

Зарубежные сериалы Космические Хулиганы / Firefly, Stargate: Atlantis / Серии 1-10 (10) (Джосс Уидон, Верн Джиллам, Тим Минеар) [2013 г., Пародия, комедия, фантастика, DVDRip] VO Чертёнок
0 | 0

0 | 990

41

18.07.2013 20:37

T Зарубежные мультфильмы Космический пират Харлок / Space Pirate Captain Harlock (Синдзи Арамаки) [2013 г., мультфильм, фантастика, боевик, приключения, HDRip] [расширенная версия] MVO + Sub (Rus) 90ytr90
0 | 0

0 | 1423

60

15.03.2014 14:45

T Зарубежные мультфильмы Космический пират Харлок / Space Pirate Captain Harlock (Синдзи Арамаки) [2013 г., мультфильм, фантастика, боевик, приключения, HDRip] [расширенная версия] MVO + Original (Jap) + Sub (Rus) 90ytr90
0 | 0

0 | 1328

14

15.03.2014 14:51

T Зарубежные мультфильмы Космический пират Харлок / Space Pirate Captain Harlock (Синдзи Арамаки) [2013 г., мультфильм, фантастика, боевик, приключения, BDRip-AVC] [расширенная версия] MVO + Original (Jap) + Sub (Rus) 90ytr90
0 | 0

0 | 1339

25

15.03.2014 15:00

T Зарубежные мультфильмы Космический пират Харлок / Space Pirate Captain Harlock (Синдзи Арамаки) [2013 г., мультфильм, фантастика, боевик, приключения, HDRip] [расширенная версия] Dub [Чистый звук] Паукан
2 | 0

0 | 1058

39

20.07.2014 06:35

T Зарубежные мультфильмы Космический пират Харлок / Space Pirate Captain Harlock (Синдзи Арамаки) [2013 г., мультфильм, фантастика, боевик, приключения, HDRip] Dub (iTunes) 90ytr90
1 | 0

0 | 558

17

02.10.2014 06:09

T Зарубежные мультфильмы Космический пират Харлок / Space Pirate Captain Harlock (Синдзи Арамаки) [2013 г., мультфильм, фантастика, боевик, приключения, HDRip] Dub (iTunes) + Original (Eng) 90ytr90
0 | 0

0 | 608

18

02.10.2014 06:12

матроскин Пол:Муж

12-Апр-2013 14:49

Качайте и смотрите интересное документальное кино
.

ankat60 Пол:Муж

12-Апр-2013 18:10

матроскин
Поддержу!!! Это то, что мы профукали....

Яндекс.Метрика powered by Sphinx


В Н И М А Н И Е
Сайт не распространяет и не хранит электронные версии произведений, а лишь бесплатно и без коммерческой выгоды (не требуя взамен платы,
SMS и т.д.) предоставляет доступ к создаваемому пользователями каталогу ссылок на торрент-файлы, которые содержат только списки хеш-сумм.
Убедительная просьба с жалобами обращаться напрямую к пользователю, разместившему торрент файл.

Вверх