Loading...
Error

Буран-испытания продолжаются... [1980 г., документальный, исторический, TVRip]

Статистика раздачи
Размер:  393 MB   |    Зарегистрирован:  3 года 7 месяцев   |    Скачан:  11 раз
Сидов:  1  |  0 KB/s  ]   Личеров:  0  |  0 KB/s  ]

* - сиды/пиры с внешних источников

   
 
Автор Сообщение

матроскин Пол:Муж

12-Апр-2013 13:01

Буран-испытания продолжаются...


Год выпуска: 1980
Жанр: документальный, исторический
Страна: СССР
Выпущено: Центрнаучфильм
Сюжет фильма:
Космическая система "Энергия-Буран" проходит испытания на надежность на безотказность работы всех узлов космического корабля."Советская автоматика (компьютер) высокого класса посадила корабль "Буран" в автоматическом режиме по заданной программе с высокой точностью.До сих пор американцы не смогли создать такую автоматику которая находилась на борту корабля "Буран"
"Буран"- предназначен для решения ряда оборонных задач, выведения нa орбиту Земли различных космических объектов и их обслуживания; доставки модулей и персонала для сборки нa орбите крупногабаритных сооружений, возврата нa Землю неисправных или выработавших ресурс спутников, освоения оборудования и технологий космического производства и доставки продукции нa Землю, выполнения других грузопассажирских перевозок пo маршруту Земля-Kосмос-Земля.
Качество видео: TVRip

Продолжительность: 00:25:04
Формат: avi
Видео: xvid, 720x576, 1920 kbps
Аудио: русский, оригинал, MP3 2.0, 256 kbps

Код:

General
Complete name                    : C:\Users\Security\Videos\Мамонов\«Энергия-Буран»- Испытания продолжаются....avi
Format                           : AVI
Format/Info                      : Audio Video Interleave
File size                        : 393 MiB
Duration                         : 25mn 4s
Overall bit rate                 : 2 189 Kbps
Writing application              : Lavf52.93.0

Video
Format                           : xvid
Codec ID                         : xvid
Duration                         : 25mn 4s
Bit rate                         : 1 921 Kbps
Width                            : 720 pixels
Height                           : 576 pixels
Display aspect ratio             : 5/4
Frame rate                       : 25.000 fps
Standard                         : PAL
Resolution                       : 24 bits
Bits/(Pixel*Frame)               : 0.185
Stream size                      : 344 MiB (88%)

Audio
ID                               : 1
Format                           : MPEG Audio
Format version                   : Version 1
Format profile                   : Layer 3
Codec ID                         : 55
Codec ID/Hint                    : MP3
Duration                         : 25mn 4s
Bit rate mode                    : Constant
Bit rate                         : 256 Kbps
Channel(s)                       : 2 channels
Sampling rate                    : 44.1 KHz
Resolution                       : 16 bits
Stream size                      : 45.9 MiB (12%)
Alignment                        : Aligned on interleaves
Interleave, duration             : 26 ms (0.65 video frame)
Writing library                  : LAME3.98.4

picpicpicpicpicpic
Для увеличения картинки щелкните мышкой по превью

Этот торрент недоступен для скачивания без регистрации, однако доступен по публичной magnet-ссылке (источники с публичных трекеров). Перед использованием ссылки прочтите, пожалуйста Пользовательское соглашение, а также как можно дольше оставайтесь на раздаче! Для того, чтобы скачать сам торрент-файл (который видит больше источников), а также для того, чтобы поблагодарить релизера, вам необходимо зарегистрироваться. Если регистрироваться лень - вы можете также попробовать скачать релиз по нашим партнерским ссылкам ниже.

[underverse.su].t26071.torrent
Трекер: Зарегистрирован   [ 12.04.2013 13:01 ]  

Статус: проверено (by Чертёнок at 12.04.2013 13:19)
Поблагодарили: 3 человека
Тип торрента: публичный - доступные источники с открытых трекеров: 
Размер: 393 MB (занимает 0,09 DVDR, для записи нужно 1 болванка DVDR/RW)
 
 

матроскин Пол:Муж

12-Апр-2013 14:52

Качайте и смотрите интересное документальное кино
.

Hranitel Пол:Муж

26-Апр-2013 20:23

Буран-один из символов великих достижений Совесткой эпохи. Автору-респект! :good:

Яндекс.Метрика powered by Sphinx


В Н И М А Н И Е
Сайт не распространяет и не хранит электронные версии произведений, а лишь бесплатно и без коммерческой выгоды (не требуя взамен платы,
SMS и т.д.) предоставляет доступ к создаваемому пользователями каталогу ссылок на торрент-файлы, которые содержат только списки хеш-сумм.
Убедительная просьба с жалобами обращаться напрямую к пользователю, разместившему торрент файл.

Вверх