Loading...
Error

Юрий Гагарин - Символ эпохи [2012 г., документальный, исторический, TVRip]

Статистика раздачи
Размер:  875 MB   |    Зарегистрирован:  3 года 7 месяцев   |    Скачан:  11 раз
Сидов:  1  |  0 KB/s  ]   Личеров:  0  |  0 KB/s  ]

* - сиды/пиры с внешних источников

   
 
Автор Сообщение

матроскин Пол:Муж

12-Апр-2013 12:44

Юрий Гагарин - Символ эпохи


Год выпуска: 2012
Жанр: документальный, исторический
Страна: Россия
Режиссер: Винилов Роман
Сюжет фильма:
Первый человек совершивший полет в космическое пространство. 12 апреля 1961 года в 9 часов 7 минут по московскому времени с космодрома Байконур в Казахстане поднялся космический корабль "Восток" совершив полет вокруг земного шара и через 108 минут благополучно приземлился на землю. На борту корабля находился Советский летчик космонавт майор Юрий Алексеевич Гагарин. Президиум Верховного Совета СССР постановил ежегодно отмечать 12 апреля как день Космонавтики. Мир шагнул в эпоху космической эры. В 1917 году после неудачи и поражений буржуазной революции Россия встала на путь построения социализма. Россия стала первой страной которую возглавили рабочие и крестьяне. Они создали Великий Советский Союз. Важным для жителей этой страны были не деньги и накопления капиталов, а развитие человечества, прогресс, наука и образование. Это позволило создать экономику нового типа, а также мощнейшие научные институты. Россия стала державой на страже мира во всем мире. Именно Советский Союз спас мир от фашизма, научил защищать рабочих и их труд, подарил миру множество научных технологий. И только в Советском Союзе мог родиться такой человек как Юрий Алексеевич Гагарин. Сегодня с нами нет Юрия Гагарина и этой великой страны Советского Союза, но давайте вспомним, что нам говорил когда-то Юрий Алексеевич Гагарин.......
Качество видео: TVRip

Продолжительность: 00:58:58
Формат: avi
Видео: DivX 4, 640x480, 1804 kbps
Аудио: русский, оригинал, MP3 2.0, 256 kbps

Код:

General
Complete name                    : C:\Users\Security\Videos\Мамонов\Юрий Гагарин - Символ Эпохи.avi
Format                           : AVI
Format/Info                      : Audio Video Interleave
File size                        : 875 MiB
Duration                         : 58mn 58s
Overall bit rate                 : 2 074 Kbps
Writing application              : Lavf52.93.0

Video
ID                               : 0
Format                           : MPEG-4 Visual
Format profile                   : Simple@L1
Format settings, BVOP            : No
Format settings, QPel            : No
Format settings, GMC             : No warppoints
Format settings, Matrix          : Default (H.263)
Codec ID                         : DIVX
Codec ID/Info                    : Project Mayo
Codec ID/Hint                    : DivX 4
Duration                         : 58mn 57s
Bit rate                         : 1 805 Kbps
Width                            : 640 pixels
Height                           : 480 pixels
Display aspect ratio             : 4/3
Frame rate                       : 29.920 fps
Resolution                       : 24 bits
Colorimetry                      : 4:2:0
Scan type                        : Progressive
Bits/(Pixel*Frame)               : 0.196
Stream size                      : 761 MiB (87%)
Writing library                  : Lavc52.108.0

Audio
ID                               : 1
Format                           : MPEG Audio
Format version                   : Version 1
Format profile                   : Layer 3
Codec ID                         : 55
Codec ID/Hint                    : MP3
Duration                         : 58mn 58s
Bit rate mode                    : Constant
Bit rate                         : 256 Kbps
Channel(s)                       : 2 channels
Sampling rate                    : 44.1 KHz
Resolution                       : 16 bits
Stream size                      : 108 MiB (12%)
Alignment                        : Aligned on interleaves
Interleave, duration             : 26 ms (0.78 video frame)
Writing library                  : LAME3.98.4

picpicpicpicpicpic
Для увеличения картинки щелкните мышкой по превью

Этот торрент недоступен для скачивания без регистрации, однако доступен по публичной magnet-ссылке (источники с публичных трекеров). Перед использованием ссылки прочтите, пожалуйста Пользовательское соглашение, а также как можно дольше оставайтесь на раздаче! Для того, чтобы скачать сам торрент-файл (который видит больше источников), а также для того, чтобы поблагодарить релизера, вам необходимо зарегистрироваться. Если регистрироваться лень - вы можете также попробовать скачать релиз по нашим партнерским ссылкам ниже.

[underverse.su].t26070.torrent
Трекер: Зарегистрирован   [ 12.04.2013 12:44 ]  

Статус: проверено (by Чертёнок at 12.04.2013 12:54)
Поблагодарили: 2 человека
Тип торрента: публичный - доступные источники с открытых трекеров: 
Размер: 875 MB (занимает 0,2 DVDR, для записи нужно 1 болванка DVDR/RW)
 
 
Похожие темы
Форум Тема Автор Торрент Отв. Посл. сооб.
Исторические фильмы Юрий Гагарин (Юрий Сальников) [1969, документальный, TVRip] матроскин
1 | 0

1 | 862

3

27.04.2013 13:22

матроскин Пол:Муж

12-Апр-2013 12:48

ПОЗДРАВЛЯЮ ВСЕХ СОВЕТСКИХ ЛЮДЕЙ С ДНЕМ СОВЕТСКОЙ КОСМОНАВТИКИ !!!

ЗНАЕТЕ КАКИМ ОН ПАРНЕМ БЫЛ.....






Уважаемые друзья!

Пятьдесят два года назад советский гражданин, коммунист Юрий Гагарин вписал яркую страницу в мировую историю. То, о чём с древних времён мечтали люди, стало реальностью, благодаря идеям русских учёных Кибальчича и Циолковского, острой мысли советских конструкторов Королева и Козлова, блестящей подготовке и несравненной отваге первых космонавтов. Всего через 15 лет после разрушительной войны советская страна совершила прыжок во Вселенную.

12 апреля 1961 года космический корабль «Восток» с человеком на борту совершил полёт вокруг земного шара. «В этом подвиге, который войдёт в века, воплощены гений советского народа, могучая сила социализма», - говорилось в обращении ЦК КПСС, Президиума Верховного Совета СССР и Правительства Советского Союза.

И сразу в нашей стране появилась новая профессия – космонавт - престижная и романтичная. О космонавтах писали песни и снимали фильмы, вся страна знала фамилии советских покорителей космоса. Дети играли в космонавтов и грезили о покорении далёких звёзд.

Поздравляя космонавтов и учёных, рабочих и инженеров космической отрасли и всех граждан России с Днём космонавтики, с триумфом советского народа, желаю каждому крепкого здоровья и чистого неба, новых успехов и прорывов. Заверяю, что фракция КПРФ в Государственной Думе делала, делает и будет делать всё возможное для того, чтобы наша страна вернула себе завоёванное в суровых испытаниях лидерство в космическом пространстве.

Пусть лучистая гагаринская улыбка вдохновляет вас на новые победы и свершения!



С уважением,

Председатель ЦК КПРФ

Руководитель фракции КПРФ

в Государственной Думе РФ,

Г.А. Зюганов.

Яндекс.Метрика powered by Sphinx


В Н И М А Н И Е
Сайт не распространяет и не хранит электронные версии произведений, а лишь бесплатно и без коммерческой выгоды (не требуя взамен платы,
SMS и т.д.) предоставляет доступ к создаваемому пользователями каталогу ссылок на торрент-файлы, которые содержат только списки хеш-сумм.
Убедительная просьба с жалобами обращаться напрямую к пользователю, разместившему торрент файл.

Вверх