Loading...
Error

Аппараты лунных программ (6 серия из 6) / Moon Machines [2008 г., документальный, TVRip] VO

Статистика раздачи
Размер:  724 MB   |    Зарегистрирован:  3 года 7 месяцев   |    Скачан:  4 раза

Полного источника не было: 10 часов

Сидов:  0  |  0 KB/s  ]   Личеров:  0  |  0 KB/s  ]

* - сиды/пиры с внешних источников

   
 
Автор Сообщение

матроскин Пол:Муж

09-Апр-2013 11:31

Аппараты лунных программ (6 серия из 6) / Moon Machines


Год выпуска: 2008
Жанр: документальный
Страна: Великобритания
Режиссер: Кристофер Райли
Сюжет фильма:
В этом фильме пойдет увлекательный рассказ об инженерах, посвятивших свою жизнь программе "Аполлон" и разработке лунохода. 6 серия "Луноход"
Качество видео: TVRip

Продолжительность: 00:43:56
Формат: avi
Видео: DivX 4, 720x576, 2036 kbps
Аудио: русский, одноголосый закадровый [профессиональный], MP3 2.0, 256 kbps

Код:

General
Complete name                    : C:\Users\Security\Videos\Мамонов\06с. Аппараты лунных программ - Луноход.avi
Format                           : AVI
Format/Info                      : Audio Video Interleave
File size                        : 724 MiB
Duration                         : 43mn 56s
Overall bit rate                 : 2 305 Kbps
Writing application              : Lavf52.93.0

Video
ID                               : 0
Format                           : MPEG-4 Visual
Format profile                   : Simple@L1
Format settings, BVOP            : No
Format settings, QPel            : No
Format settings, GMC             : No warppoints
Format settings, Matrix          : Default (H.263)
Codec ID                         : DIVX
Codec ID/Info                    : Project Mayo
Codec ID/Hint                    : DivX 4
Duration                         : 43mn 55s
Bit rate                         : 2 037 Kbps
Width                            : 720 pixels
Height                           : 576 pixels
Display aspect ratio             : 4/3
Frame rate                       : 25.000 fps
Standard                         : PAL
Resolution                       : 24 bits
Colorimetry                      : 4:2:0
Scan type                        : Progressive
Bits/(Pixel*Frame)               : 0.196
Stream size                      : 640 MiB (88%)
Writing library                  : Lavc52.108.0

Audio
ID                               : 1
Format                           : MPEG Audio
Format version                   : Version 1
Format profile                   : Layer 3
Codec ID                         : 55
Codec ID/Hint                    : MP3
Duration                         : 43mn 56s
Bit rate mode                    : Constant
Bit rate                         : 256 Kbps
Channel(s)                       : 2 channels
Sampling rate                    : 44.1 KHz
Resolution                       : 16 bits
Stream size                      : 80.4 MiB (11%)
Alignment                        : Aligned on interleaves
Interleave, duration             : 26 ms (0.65 video frame)

picpicpicpicpicpic
Для увеличения картинки щелкните мышкой по превью

Этот торрент недоступен для скачивания без регистрации, однако доступен по публичной magnet-ссылке (источники с публичных трекеров). Перед использованием ссылки прочтите, пожалуйста Пользовательское соглашение, а также как можно дольше оставайтесь на раздаче! Для того, чтобы скачать сам торрент-файл (который видит больше источников), а также для того, чтобы поблагодарить релизера, вам необходимо зарегистрироваться. Если регистрироваться лень - вы можете также попробовать скачать релиз по нашим партнерским ссылкам ниже.

[underverse.su].t25972.torrent
Трекер: Зарегистрирован   [ 09.04.2013 11:31 ]  

Статус: проверено (by Чертёнок at 09.04.2013 11:34)
Поблагодарили: пока никто не поблагодарил...
Тип торрента: публичный - доступные источники с открытых трекеров: 
Размер: 724 MB (занимает 0,16 DVDR, для записи нужно 1 болванка DVDR/RW)
 
 
Похожие темы
Форум Тема Автор Торрент Отв. Посл. сооб.
Исторические фильмы Аппараты лунных программ (1 серия из 6) / Moon Machines [2008 г., документальный, исторический, TVRip] матроскин
1 | 2

1 | 390

4

09.04.2013 10:51

Исторические фильмы Аппараты лунных программ (2 серия из 6) / Moon Machines [2008 г., документальный, исторический, TVRip] VO матроскин
0 | 0

1 | 392

3

09.04.2013 11:11

Исторические фильмы Аппараты лунных программ (3 серия из 6) / Moon Machines [2008 г., документальный, исторический, TVRip] VO матроскин
1 | 0

1 | 450

3

09.04.2013 11:12

Исторические фильмы Аппараты лунных программ (4 серия из 6) / Moon Machines [2008 г., документальный, исторический, TVRip] VO матроскин
1 | 0

1 | 410

3

09.04.2013 11:19

Исторические фильмы Аппараты лунных программ (5 серия из 6) / Moon Machines [2008 г., документальный, исторический, TVRip] VO матроскин
0 | 0

1 | 399

3

09.04.2013 11:33

матроскин Пол:Муж

09-Апр-2013 11:33

Качайте и смотрите документальные фильмы!

.

Яндекс.Метрика powered by Sphinx


В Н И М А Н И Е
Сайт не распространяет и не хранит электронные версии произведений, а лишь бесплатно и без коммерческой выгоды (не требуя взамен платы,
SMS и т.д.) предоставляет доступ к создаваемому пользователями каталогу ссылок на торрент-файлы, которые содержат только списки хеш-сумм.
Убедительная просьба с жалобами обращаться напрямую к пользователю, разместившему торрент файл.

Вверх