Loading...
Error

Аппараты лунных программ (1 серия из 6) / Moon Machines [2008 г., документальный, исторический, TVRip]

Статистика раздачи
Размер:  1,01 GB   |    Зарегистрирован:  3 года 7 месяцев   |    Скачан:  4 раза

Полного источника не было: 1 год 1 месяц

Сидов:  0  |  0 KB/s  ]   Личеров:  0  |  0 KB/s  ]

* - сиды/пиры с внешних источников

   
 
Автор Сообщение

матроскин Пол:Муж

09-Апр-2013 10:47

Аппараты лунных программ (1 серия из 6) / Moon Machines


Год выпуска: 2008
Жанр: документальный, исторический
Страна: Великобритания
Режиссер: Кристофер Райли
Сюжет фильма:
Для того,чтобы две дюжины американцев побывали на Луне,потребовалась работа 400-тысяч инженеров и техников. Это истории о мужчинах и женщинах,которые создали эти аппараты,которые доставили человека на Луну! 1 серия "Сатурн-5"
Качество видео: TVRip

Продолжительность: 01:51:37
Формат: avi
Видео: DivX 4, 720x576, 1191 kbps
Аудио: русский, одноголосый закадровый [профессиональный], MP3 2.0, 256 kbps

Код:

General
Complete name                    : C:\Users\Security\Videos\Мамонов\01с. Аппараты лунных программ - Сатурн-5.avi
Format                           : AVI
Format/Info                      : Audio Video Interleave
Format profile                   : OpenDML
File size                        : 1.01 GiB
Duration                         : 1h 51mn
Overall bit rate                 : 1 299 Kbps
Writing application              : Lavf52.93.0

Video
ID                               : 0
Format                           : MPEG-4 Visual
Format profile                   : Simple@L1
Format settings, BVOP            : No
Format settings, QPel            : No
Format settings, GMC             : No warppoints
Format settings, Matrix          : Default (H.263)
Codec ID                         : DIVX
Codec ID/Info                    : Project Mayo
Codec ID/Hint                    : DivX 4
Duration                         : 1h 51mn
Bit rate                         : 1 192 Kbps
Width                            : 720 pixels
Height                           : 576 pixels
Display aspect ratio             : 4/3
Frame rate                       : 25.000 fps
Standard                         : PAL
Resolution                       : 24 bits
Colorimetry                      : 4:2:0
Scan type                        : Progressive
Bits/(Pixel*Frame)               : 0.115
Stream size                      : 952 MiB (92%)
Writing library                  : Lavc52.108.0

Audio
ID                               : 1
Format                           : MPEG Audio
Format version                   : Version 1
Format profile                   : Layer 3
Codec ID                         : 55
Codec ID/Hint                    : MP3
Duration                         : 44mn 5s
Bit rate mode                    : Constant
Bit rate                         : 256 Kbps
Channel(s)                       : 2 channels
Sampling rate                    : 44.1 KHz
Resolution                       : 16 bits
Stream size                      : 80.7 MiB (8%)
Alignment                        : Aligned on interleaves
Interleave, duration             : 26 ms (0.65 video frame)

picpicpicpicpicpic
Для увеличения картинки щелкните мышкой по превью

Этот торрент недоступен для скачивания без регистрации, однако доступен по публичной magnet-ссылке (источники с публичных трекеров). Перед использованием ссылки прочтите, пожалуйста Пользовательское соглашение, а также как можно дольше оставайтесь на раздаче! Для того, чтобы скачать сам торрент-файл (который видит больше источников), а также для того, чтобы поблагодарить релизера, вам необходимо зарегистрироваться. Если регистрироваться лень - вы можете также попробовать скачать релиз по нашим партнерским ссылкам ниже.

[underverse.su].t25965.torrent
Трекер: Зарегистрирован   [ 09.04.2013 10:47 ]  

Статус: проверено (by Чертёнок at 09.04.2013 11:35)
Поблагодарили: пока никто не поблагодарил...
Тип торрента: публичный - доступные источники с открытых трекеров: 
Размер: 1,01 GB (занимает 0,23 DVDR, для записи нужно 1 болванка DVDR/RW)
 
 
Похожие темы
Форум Тема Автор Торрент Отв. Посл. сооб.
Исторические фильмы Аппараты лунных программ (2 серия из 6) / Moon Machines [2008 г., документальный, исторический, TVRip] VO матроскин
0 | 0

1 | 391

3

09.04.2013 11:11

Исторические фильмы Аппараты лунных программ (3 серия из 6) / Moon Machines [2008 г., документальный, исторический, TVRip] VO матроскин
1 | 0

1 | 450

3

09.04.2013 11:12

Исторические фильмы Аппараты лунных программ (4 серия из 6) / Moon Machines [2008 г., документальный, исторический, TVRip] VO матроскин
1 | 0

1 | 409

3

09.04.2013 11:19

Исторические фильмы Аппараты лунных программ (5 серия из 6) / Moon Machines [2008 г., документальный, исторический, TVRip] VO матроскин
1 | 0

1 | 399

3

09.04.2013 11:33

Исторические фильмы Аппараты лунных программ (6 серия из 6) / Moon Machines [2008 г., документальный, TVRip] VO матроскин
1 | 0

1 | 1049

4

09.04.2013 11:33



Последний раз редактировалось: матроскин (09.04.2013 11:02), всего редактировалось 1 раз

матроскин Пол:Муж

09-Апр-2013 10:51

Качайте и смотрите документальные фильмы!

.

Яндекс.Метрика powered by Sphinx


В Н И М А Н И Е
Сайт не распространяет и не хранит электронные версии произведений, а лишь бесплатно и без коммерческой выгоды (не требуя взамен платы,
SMS и т.д.) предоставляет доступ к создаваемому пользователями каталогу ссылок на торрент-файлы, которые содержат только списки хеш-сумм.
Убедительная просьба с жалобами обращаться напрямую к пользователю, разместившему торрент файл.

Вверх